21 and Over (2013) m-720p BDRip Audio Inglés [Subt. Esp] (Comedia)

Maestro Revolver

Well-known member
Miembro del Staff
Administrador
Registro
9 Ago 2012
Mensajes
3.567








TÍTULO ORIGINAL: 21 and Over
AÑO: 2013
DURACIÓN: 93 min.
PAÍS: USA
DIRECTOR: Jon Lucas, Scott Moore
GUIÓN: Jon Lucas, Scott Moore
REPARTO: Miles Teller, Justin Chon, Jonathan Keltz, Sarah Wright, Skylar Astin, Daniel Booko, Basil Harris, François Chau, Bonnie Bentley, Samantha Futerman, Christiann Castellanos, Dustin Ybarra, Craig Cackowski, Grace Arends, Ashley Platz
PRODUCTORA: Mandeville Films / Relativity Media / SkyLand Entertainment
GÉNERO: Comedia | Comedia juvenil
: http://www.imdb.com/title/tt1711425/






Jeff Chang es un brillante estudiante que está a punto de cumplir 21 años. En la noche previa a una importante entrevista con una facultad de medicina donde Jeff quiere estudiar, dos amigos suyos lo llevan a tomar una cerveza, pero la noche no terminará como cabía esperar.
























La pelicula NO tiene ninguna marca... solo colocamos el nombre de esta web en las capturas






Código:
General
Format                                   : Matroska
Format version                           : Version 2
File size                                : 2.05 GiB
Duration                                 : 1h 33mn
Overall bit rate                         : 3 158 Kbps
Movie name                               : www.club-hd.com
Encoded date                             : UTC 2013-06-07 00:52:01
Writing application                      : mkvmerge v5.7.0 ('The Whirlwind') built on Jul  8 2012 20:08:51
Writing library                          : libebml v1.2.3 + libmatroska v1.3.0

Video
ID                                       : 1
Format                                   : AVC
Format/Info                              : Advanced Video Codec
Format profile                           : High@L4.1
Format settings, CABAC                   : Yes
Format settings, ReFrames                : 9 frames
Codec ID                                 : V_MPEG4/ISO/AVC
Duration                                 : 1h 33mn
Bit rate                                 : 2 708 Kbps
Width                                    : 1 280 pixels
Height                                   : 534 pixels
Display aspect ratio                     : 2.40:1
Frame rate mode                          : Constant
Frame rate                               : 23.976 fps
Color space                              : YUV
Chroma subsampling                       : 4:2:0
Bit depth                                : 8 bits
Scan type                                : Progressive
Bits/(Pixel*Frame)                       : 0.165
Stream size                              : 1.72 GiB (84%)
Writing library                          : x264 core 130 r2273 b3065e6
Language                                 : English
Default                                  : Yes
Forced                                   : No

Audio
ID                                       : 2
Format                                   : AC-3
Format/Info                              : Audio Coding 3
Mode extension                           : CM (complete main)
Format settings, Endianness              : Big
Codec ID                                 : A_AC3
Duration                                 : 1h 33mn
Bit rate mode                            : Constant
Bit rate                                 : 448 Kbps
Channel(s)                               : 6 channels
Channel positions                        : Front: L C R, Side: L R, LFE
Sampling rate                            : 48.0 KHz
Bit depth                                : 16 bits
Compression mode                         : Lossy
Stream size                              : 298 MiB (14%)
Language                                 : English
Default                                  : Yes
Forced                                   : No

Text
ID                                       : 3
Format                                   : UTF-8
Codec ID                                 : S_TEXT/UTF8
Codec ID/Info                            : UTF-8 Plain Text
Language                                 : Spanish
Default                                  : Yes
Forced                                   : No

Menu
00:00:00.000                             : en:Chapter 1
00:05:22.614                             : en:Chapter 2
00:09:25.899                             : en:Chapter 3
00:13:18.673                             : en:Chapter 4
00:16:21.898                             : en:Chapter 5
00:19:47.686                             : en:Chapter 6
00:23:57.144                             : en:Chapter 7
00:26:40.516                             : en:Chapter 8
00:29:09.831                             : en:Chapter 9
00:32:29.573                             : en:Chapter 10
00:35:44.392                             : en:Chapter 11
00:37:33.126                             : en:Chapter 12
00:41:46.963                             : en:Chapter 13
00:46:46.804                             : en:Chapter 14
00:52:37.988                             : en:Chapter 15
00:57:17.643                             : en:Chapter 16
01:01:42.866                             : en:Chapter 17
01:05:20.416                             : en:Chapter 18
01:08:05.415                             : en:Chapter 19
01:12:11.953                             : en:Chapter 20
01:16:42.556                             : en:Chapter 21
01:19:14.750                             : en:Chapter 22
01:24:36.571                             : en:Chapter 23
01:26:55.544                             : en:Chapter 24








Enlaces de Mega y Google Drive solo disponibles para Miembros VIP

Compra tu Membresía VIP y apoya a Club-HD!

ATENCIÓN! Tenemos TODO el material de Club-HD disponible por Mega y Google Drive, enlaces 100% activos y online hasta la fecha

Llévate tus cuentas Mega PRO III gratis con tu membresía VIP!
Todos los posts vivos con links de Mega y Google Drive.
Todo el material de Club-HD desbloqueado y sin publicidad.

Click Aquí para más información.


Para ver este contenido oculto, debes dar click en una de las siguientes reacciones : Like Like, Love Love, Haha Haha, Wow Wow, Sad Sad, Angry Angry



 
Última edición por un moderador:

Usuarios Que Están Viendo Este Tema (Total: 1, Miembros: 0, Invitados: 1)

Quién Leyó Este Tema (Total Miembros: 2)

Arriba