28 Days Later (2002) 720p BDRip Dual Latino-Inglés [Subt. Esp] (Terror)

Maestro Revolver

Well-known member
Miembro del Staff
Administrador
Registro
9 Ago 2012
Mensajes
3.569
Reacciones
59.341
Puntos
113

Reputation:









TÍTULO ORIGINAL: 28 Days Later
AÑO: 2002
DURACIÓN: 113 min.
PAÍS: Reino Unido
DIRECTOR: Danny Boyle
GUIÓN: Alex Garland
REPARTO: Cillian Murphy, Naomie Harris, Megan Burns, Brendan Gleeson, Christopher Eccleston
PRODUCTORA: Fox Searchlight Pictures / DNA Films / UK Film Council
GÉNERO: Terror. Fantástico. Ciencia ficción | Zombis
: http://www.imdb.com/title/tt0289043/






Londres es un cementerio. Las calles antes abarrotadas están ahora desiertas. Las tiendas, vacías. Y reina un silencio total. Tras la propagación de un virus que acabó con la mayor parte de la población de Gran Bretaña, tuvo lugar la invasión de unos seres terroríficos. El virus se difundió, tras la incursión en un laboratorio, de un grupo de defensores de los derechos de los animales. Transmitido a través de la sangre, el virus produce efectos devastadores en los afectados. En 28 días la epidemia se extiende por todo el país y sólo queda un puñado de supervivientes.
























La pelicula NO tiene ninguna marca... solo colocamos el nombre de esta web en las capturas






Código:
General
Format                                   : Matroska
Format version                           : Version 2
File size                                : 4.52 GiB
Duration                                 : 1h 53mn
Overall bit rate                         : 5 725 Kbps
Movie name                               : www.club-hd.com
Encoded date                             : UTC 2013-03-29 02:28:58
Writing application                      : mkvmerge v5.7.0 ('The Whirlwind') built on Jul  8 2012 20:08:51
Writing library                          : libebml v1.2.3 + libmatroska v1.3.0

Video
ID                                       : 1
Format                                   : AVC
Format/Info                              : Advanced Video Codec
Format profile                           : High@L5.1
Format settings, CABAC                   : Yes
Format settings, ReFrames                : 8 frames
Codec ID                                 : V_MPEG4/ISO/AVC
Duration                                 : 1h 53mn
Bit rate                                 : 4 891 Kbps
Width                                    : 1 280 pixels
Height                                   : 688 pixels
Display aspect ratio                     : 1.85:1
Frame rate mode                          : Constant
Frame rate                               : 23.976 fps
Color space                              : YUV
Chroma subsampling                       : 4:2:0
Bit depth                                : 8 bits
Scan type                                : Progressive
Bits/(Pixel*Frame)                       : 0.232
Stream size                              : 3.78 GiB (83%)
Title                                    : www.club-hd.com
Writing library                          : x264 core 57 svn-709C
Language                                 : English
Default                                  : Yes
Forced                                   : No

Audio #1
ID                                       : 2
Format                                   : AC-3
Format/Info                              : Audio Coding 3
Mode extension                           : CM (complete main)
Format settings, Endianness              : Big
Codec ID                                 : A_AC3
Duration                                 : 1h 53mn
Bit rate mode                            : Constant
Bit rate                                 : 192 Kbps
Channel(s)                               : 2 channels
Channel positions                        : Front: L R
Sampling rate                            : 48.0 KHz
Bit depth                                : 16 bits
Compression mode                         : Lossy
Stream size                              : 155 MiB (3%)
Title                                    : www.club-hd.com  >>  Latino
Language                                 : Spanish
Default                                  : Yes
Forced                                   : No

Audio #2
ID                                       : 3
Format                                   : AC-3
Format/Info                              : Audio Coding 3
Mode extension                           : CM (complete main)
Format settings, Endianness              : Big
Codec ID                                 : A_AC3
Duration                                 : 1h 53mn
Bit rate mode                            : Constant
Bit rate                                 : 640 Kbps
Channel(s)                               : 6 channels
Channel positions                        : Front: L C R, Side: L R, LFE
Sampling rate                            : 48.0 KHz
Bit depth                                : 16 bits
Compression mode                         : Lossy
Stream size                              : 518 MiB (11%)
Title                                    : www.club-hd.com  >>  Inglés
Language                                 : English
Default                                  : No
Forced                                   : No

Text
ID                                       : 4
Format                                   : UTF-8
Codec ID                                 : S_TEXT/UTF8
Codec ID/Info                            : UTF-8 Plain Text
Language                                 : Spanish
Default                                  : No
Forced                                   : No






Agradecimientos!

Al usuario Doctor Jason por pasarme el audio latino extraído del dvd. Gracias amigo :dplgar:










Enlaces de Mega y Fireload solo disponibles para Miembros VIP

Compra tu Membresía VIP y apoya a Club-HD!

ATENCIÓN! Tenemos TODO el material de Club-HD disponible por Mega y Fireload, enlaces 100% activos y online hasta la fecha

Llévate tus cuentas Mega PRO II gratis con tu membresía VIP!
Todos los posts vivos con links de Mega y Fireload.
Todo el material de Club-HD desbloqueado y sin publicidad.

Click Aquí para más información.






Enlaces de Mega y Fireload solo disponibles para Miembros VIP

Compra tu Membresía VIP y apoya a Club-HD!

ATENCIÓN! Tenemos TODO el material de Club-HD disponible por Mega y Fireload, enlaces 100% activos y online hasta la fecha

Llévate tus cuentas Mega PRO II gratis con tu membresía VIP!
Todos los posts vivos con links de Mega y Fireload.
Todo el material de Club-HD desbloqueado y sin publicidad.

Click Aquí para más información.



Para ver este contenido oculto, debes dar click en una de las siguientes reacciones : Like Like, Love Love, Haha Haha, Wow Wow, Sad Sad, Angry Angry


Para ver este contenido oculto, debes dar click en una de las siguientes reacciones : Like Like, Love Love, Haha Haha, Wow Wow, Sad Sad, Angry Angry
 
Última edición por un moderador:

Nosferatu

Well-known member
Súper Moderador
Registro
31 Ago 2012
Mensajes
2.275
Reacciones
1.362
Puntos
113
Edad
44
Ubicación
Welcome to Hell!!

Reputation:

Excelente película Maestro gracias...:aplausos::aplausos::aplausos:

PD: Gracias a Doctor Jason, por el Audio latino.:dplgar:

PD2: siempre nos sorprendes con algo nuevo.;):dplgar:
 
Última edición:

Geodiego

Active member
Registro
27 Ago 2012
Mensajes
166
Reacciones
46
Puntos
28
Edad
33

Reputation:

Una excelente peli que no puede faltar en la videoteca, muchas gracias por subirla. Desc_g_:dplgar:
 

Howl

Well-known member
Miembro VIP
Registro
28 Ago 2012
Mensajes
1.765
Reacciones
87
Puntos
48

Reputation:

omg nunca pense en tener esta peli en hd muchas gracias R21 y Jason y si hay algun otro implicado tambien :dplgar:
 

Doctor Jason

New member
Súper Moderador
Registro
1 Sep 2012
Mensajes
2.400
Reacciones
4.189
Puntos
0
Ubicación
Buenos Aires

Reputation:

Hola chicos!!! Que bueno que esten de vuelta, la verdad que los extrañe un montoooooooón!!!
Y ahora a seguir actualizando al HD mi coleccion de dvds!!!

PD: Gracias a vos Revolver por subir tan buenas peliculas. Y cualquier cosa que precises me avisas, si lo tengo conta con ello.

PD2: El titulo de la pelicula, tendra algo que ver con el ciclo que padecen las mujeres todos los meses???

PD3: Esto me hizo acordar de una frase que tira Ryan Reynolds en Blade Trinity: Que le dijo una vampira lesbiana a otra? Nos vemos en 28 Días!!!
 

orcko5001

Active member
Registro
27 Ago 2012
Mensajes
288
Reacciones
35
Puntos
28
Edad
37

Reputation:

muchas gracias desde cuando la esperaba en hd saludos bro
 

Lcreme

Well-known member
Registro
27 Ago 2012
Mensajes
2.092
Reacciones
105
Puntos
63

Reputation:

Bajando peli muy esperada :) gracias!
 

Usuarios Que Están Viendo Este Tema (Total: 1, Miembros: 0, Invitados: 1)

Arriba