28 Weeks Later (2007) 720p BDRip Dual Latino-Inglés [Subt. Esp] (Terror)

Maestro Revolver

Well-known member
Miembro del Staff
Administrador
Registro
9 Ago 2012
Mensajes
3.569
Reacciones
59.346
Puntos
113

Reputation:









TÍTULO ORIGINAL: 28 Weeks Later
AÑO: 2007
DURACIÓN: 99 min.
PAÍS: Reino Unido
DIRECTOR: Juan Carlos Fresnadillo
GUIÓN: Juan Carlos Fresnadillo, Rowan Joffe, Jesús Olmo, Enrique López Lavigne
REPARTO: Robert Carlyle, Rose Byrne, Jeremy Renner, Harold Perrineau, Catherine McCormack, Mackintosh Muggleton, Idris Elba, Imogen Poots, Emily Beecham, William Meredith
PRODUCTORA: Fox Atomic / DNA Films / UK Film Council / Figment / Sogecine / Koan Films
GÉNERO: Terror. Ciencia ficción. Thriller | Gore. Zombis. Secuela
: http://www.imdb.com/title/tt0463854/






Seis meses después de que la propagación de un virus haya devastado las Islas Británicas, el ejército de los Estados Unidos declara que, vencida la epidemia, ya se puede acometer la reconstrucción del país. Los evacuados regresan entonces al país y las familias se reúnen de nuevo. Sin embargo, el virus aún no ha sido destruido y es más peligroso que nunca.
























La pelicula NO tiene ninguna marca... solo colocamos el nombre de esta web en las capturas






Código:
General
Format                                   : Matroska
Format version                           : Version 2
File size                                : 4.64 GiB
Duration                                 : 1h 40mn
Overall bit rate                         : 6 638 Kbps
Movie name                               : www.club-hd.com
Encoded date                             : UTC 2013-03-29 13:56:35
Writing application                      : mkvmerge v5.7.0 ('The Whirlwind') built on Jul  8 2012 20:08:51
Writing library                          : libebml v1.2.3 + libmatroska v1.3.0

Video
ID                                       : 1
Format                                   : AVC
Format/Info                              : Advanced Video Codec
Format profile                           : High@L5.1
Format settings, CABAC                   : Yes
Format settings, ReFrames                : 8 frames
Codec ID                                 : V_MPEG4/ISO/AVC
Duration                                 : 1h 40mn
Bit rate                                 : 5 612 Kbps
Width                                    : 1 280 pixels
Height                                   : 688 pixels
Display aspect ratio                     : 1.85:1
Frame rate mode                          : Constant
Frame rate                               : 23.976 fps
Color space                              : YUV
Chroma subsampling                       : 4:2:0
Bit depth                                : 8 bits
Scan type                                : Progressive
Bits/(Pixel*Frame)                       : 0.266
Stream size                              : 3.83 GiB (83%)
Title                                    : www.club-hd.com
Writing library                          : x264 core 57 svn-709C
Language                                 : English
Default                                  : Yes
Forced                                   : No

Audio #1
ID                                       : 2
Format                                   : AC-3
Format/Info                              : Audio Coding 3
Mode extension                           : CM (complete main)
Format settings, Endianness              : Big
Codec ID                                 : A_AC3
Duration                                 : 1h 40mn
Bit rate mode                            : Constant
Bit rate                                 : 384 Kbps
Channel(s)                               : 6 channels
Channel positions                        : Front: L C R, Side: L R, LFE
Sampling rate                            : 48.0 KHz
Bit depth                                : 16 bits
Compression mode                         : Lossy
Stream size                              : 275 MiB (6%)
Title                                    : www.club-hd.com  >>  Latino
Language                                 : Spanish
Default                                  : Yes
Forced                                   : No

Audio #2
ID                                       : 3
Format                                   : AC-3
Format/Info                              : Audio Coding 3
Mode extension                           : CM (complete main)
Format settings, Endianness              : Big
Codec ID                                 : A_AC3
Duration                                 : 1h 40mn
Bit rate mode                            : Constant
Bit rate                                 : 640 Kbps
Channel(s)                               : 6 channels
Channel positions                        : Front: L C R, Side: L R, LFE
Sampling rate                            : 48.0 KHz
Bit depth                                : 16 bits
Compression mode                         : Lossy
Stream size                              : 458 MiB (10%)
Title                                    : www.club-hd.com  >>  Inglés
Language                                 : English
Default                                  : No
Forced                                   : No

Text
ID                                       : 4
Format                                   : UTF-8
Codec ID                                 : S_TEXT/UTF8
Codec ID/Info                            : UTF-8 Plain Text
Language                                 : Spanish
Default                                  : No
Forced                                   : No








Enlaces de Mega y Fireload solo disponibles para Miembros VIP

Compra tu Membresía VIP y apoya a Club-HD!

ATENCIÓN! Tenemos TODO el material de Club-HD disponible por Mega y Fireload, enlaces 100% activos y online hasta la fecha

Llévate tus cuentas Mega PRO II gratis con tu membresía VIP!
Todos los posts vivos con links de Mega y Fireload.
Todo el material de Club-HD desbloqueado y sin publicidad.

Click Aquí para más información.


Para ver este contenido oculto, debes dar click en una de las siguientes reacciones : Like Like, Love Love, Haha Haha, Wow Wow, Sad Sad, Angry Angry


Para ver este contenido oculto, debes dar click en una de las siguientes reacciones : Like Like, Love Love, Haha Haha, Wow Wow, Sad Sad, Angry Angry
 
Última edición por un moderador:

carlos610

Well-known member
Registro
28 Ago 2012
Mensajes
1.777
Reacciones
961
Puntos
113
Edad
38
Ubicación
angol, araucania

Reputation:

yo cuarto :crcjd: gracias por traer la segunda parte de esta impactante pelicula ,, gracias revolver21 por otra gran publicación a la lita de descarga para ver la cronología de la historia saludos bye
 

Geodiego

Active member
Registro
27 Ago 2012
Mensajes
166
Reacciones
46
Puntos
28
Edad
33

Reputation:

Que grande revolver, anoche la primera y ahora ya la segunda :LXR: !!!!
 

moyin

Active member
Registro
30 Ago 2012
Mensajes
1.618
Reacciones
16
Puntos
38

Reputation:

graciasssss!!!!!!!!!! estaba esperando esta peli!
 

sharklui

Well-known member
Miembro VIP
Registro
28 Ago 2012
Mensajes
1.026
Reacciones
271
Puntos
83
Ubicación
The Matrix

Reputation:

Excelente, de una para la lista de descargas :dplgar:, como todo lo que publicas porque no se puede dejar tanta calidad por fuera de una coleccion.

MUhcas gracias por estos grandes aportes !!! :aplausos:
 

temofox

Active member
Registro
16 Feb 2013
Mensajes
582
Reacciones
30
Puntos
28

Reputation:

Orale, se ve de lujo por el Trailer. Vamos ver que tal, si da para sustos o no... Gracias!
 

Usuarios Que Están Viendo Este Tema (Total: 1, Miembros: 0, Invitados: 1)

Arriba