42 (2013) 720p BDRip Dual Latino-Inglés [Subt. Esp] (Drama)

Maestro Revolver

Well-known member
Miembro del Staff
Administrador
Registro
9 Ago 2012
Mensajes
3.567








TÍTULO ORIGINAL: 42
AÑO: 2013
DURACIÓN: 128 min.
PAÍS: USA
DIRECTOR: Brian Helgeland
GUIÓN: Brian Helgeland
REPARTO: Harrison Ford, Alan Tudyk, Chadwick Boseman, Christopher Meloni, Lucas Black, John C. McGinley, Ryan Merriman, Jud Tylor, T.R. Knight, Nicole Beharie, Brett Cullen, Hamish Linklater, Toby Huss, Brad Beyer, Rhoda Griffis, Mark Harelik
PRODUCTORA: WB / Legendary Pictures
GÉNERO: Drama | Biográfico. Deporte. Béisbol. Años 40
: http://www.imdb.com/title/tt0453562/






Historia de la vida del afroamericano Jackie Robinson (Chadwick Boseman), legendario jugador de béisbol que rompió las barreras raciales, tras firmar con los Dodgers de Brooklyn bajo la dirección del ejecutivo Branch Rickey (Harrison Ford). La participación de Robinson en la gran liga de béisbol supuso el fin de una era de segregación racial en este deporte.
























La pelicula NO tiene ninguna marca... solo colocamos el nombre de esta web en las capturas






Código:
General
Format                                   : Matroska
Format version                           : Version 2
File size                                : 3.47 GiB
Duration                                 : 2h 8mn
Overall bit rate                         : 3 869 Kbps
Movie name                               : www.club-hd.com
Encoded date                             : UTC 2013-06-30 22:12:14
Writing application                      : mkvmerge v5.7.0 ('The Whirlwind') built on Jul  8 2012 20:08:51
Writing library                          : libebml v1.2.3 + libmatroska v1.3.0

Video
ID                                       : 1
Format                                   : AVC
Format/Info                              : Advanced Video Codec
Format profile                           : High@L4.1
Format settings, CABAC                   : Yes
Format settings, ReFrames                : 8 frames
Codec ID                                 : V_MPEG4/ISO/AVC
Duration                                 : 2h 8mn
Bit rate                                 : 3 000 Kbps
Width                                    : 1 280 pixels
Height                                   : 528 pixels
Display aspect ratio                     : 2.40:1
Frame rate mode                          : Constant
Frame rate                               : 23.976 fps
Color space                              : YUV
Chroma subsampling                       : 4:2:0
Bit depth                                : 8 bits
Scan type                                : Progressive
Bits/(Pixel*Frame)                       : 0.185
Stream size                              : 2.59 GiB (75%)
Title                                    : www.club-hd.com
Writing library                          : x264 core 120
Language                                 : English
Default                                  : Yes
Forced                                   : No
Color primaries                          : BT.709
Transfer characteristics                 : BT.709
Matrix coefficients                      : BT.709

Audio #1
ID                                       : 2
Format                                   : AC-3
Format/Info                              : Audio Coding 3
Mode extension                           : CM (complete main)
Format settings, Endianness              : Big
Codec ID                                 : A_AC3
Duration                                 : 2h 8mn
Bit rate mode                            : Constant
Bit rate                                 : 448 Kbps
Channel(s)                               : 6 channels
Channel positions                        : Front: L C R, Side: L R, LFE
Sampling rate                            : 48.0 KHz
Bit depth                                : 16 bits
Compression mode                         : Lossy
Stream size                              : 411 MiB (12%)
Title                                    : www.club-hd.com  >>  Latino
Language                                 : Spanish
Default                                  : Yes
Forced                                   : No

Audio #2
ID                                       : 3
Format                                   : AC-3
Format/Info                              : Audio Coding 3
Mode extension                           : CM (complete main)
Format settings, Endianness              : Big
Codec ID                                 : A_AC3
Duration                                 : 2h 8mn
Bit rate mode                            : Constant
Bit rate                                 : 448 Kbps
Channel(s)                               : 6 channels
Channel positions                        : Front: L C R, Side: L R, LFE
Sampling rate                            : 48.0 KHz
Bit depth                                : 16 bits
Compression mode                         : Lossy
Stream size                              : 411 MiB (12%)
Title                                    : www.club-hd.com  >>  Inglés
Language                                 : English
Default                                  : No
Forced                                   : No

Text
ID                                       : 4
Format                                   : UTF-8
Codec ID                                 : S_TEXT/UTF8
Codec ID/Info                            : UTF-8 Plain Text
Language                                 : Spanish
Default                                  : No
Forced                                   : No

Menu
00:00:00.000                             : en:Chapter 1
00:09:07.755                             : en:Chapter 2
00:19:43.015                             : en:Chapter 3
00:31:42.650                             : en:Chapter 4
00:40:10.449                             : en:Chapter 5
00:49:49.653                             : en:Chapter 6
01:00:34.339                             : en:Chapter 7
01:10:33.604                             : en:Chapter 8
01:21:25.714                             : en:Chapter 9
01:31:00.955                             : en:Chapter 10
01:40:27.813                             : en:Chapter 11
01:50:13.982                             : en:Chapter 12
01:57:56.194                             : en:Chapter 13








Enlaces de Mega y Google Drive solo disponibles para Miembros VIP

Compra tu Membresía VIP y apoya a Club-HD!

ATENCIÓN! Tenemos TODO el material de Club-HD disponible por Mega y Google Drive, enlaces 100% activos y online hasta la fecha

Llévate tus cuentas Mega PRO III gratis con tu membresía VIP!
Todos los posts vivos con links de Mega y Google Drive.
Todo el material de Club-HD desbloqueado y sin publicidad.

Click Aquí para más información.


Para ver este contenido oculto, debes dar click en una de las siguientes reacciones : Like Like, Love Love, Haha Haha, Wow Wow, Sad Sad, Angry Angry



 
Última edición por un moderador:

Poooscul

Member
Registro
28 Ago 2012
Mensajes
633
Edad
42
Este tipo de pelis aparte de entretenidas te muestran un poco del inicio de la cultura Americana real. chido
 

Usuarios Que Están Viendo Este Tema (Total: 1, Miembros: 0, Invitados: 1)

Quién Leyó Este Tema (Total Miembros: 2)

Arriba