A Good Day to Die Hard (2013) EXTENDED 720p BDRip Dual Latino-Inglés [Subt. Esp] (Acción. Thriller)

Maestro Revolver

Well-known member
Miembro del Staff
Administrador
Registro
9 Ago 2012
Mensajes
3.567








TÍTULO ORIGINAL: A Good Day to Die Hard - Die Hard 5 (Die Hard V)
AÑO: 2013
DURACIÓN: 97 min.
PAÍS: USA
DIRECTOR: John Moore
GUIÓN: Skip Woods (Personaje: Roderick Thorp)
REPARTO: Bruce Willis, Jai Courtney, Sebastian Koch, Mary Elizabeth Winstead, Julia Snigir, Amaury Nolasco, Megalyn Echikunwoke, Cole Hauser, Anne Vyalitsyna, Yuliya Snigir, Melissa Tang, Pasha D. Lychnikoff, Radivoje Bukvic, Sergei Kolesnikov
PRODUCTORA: 20th Century Fox / Dune Entertainment / Origo Film Group
GÉNERO: Acción. Thriller | Secuela
: http://www.imdb.com/title/tt1606378/






El policía John McClane (Bruce Willis) se encuentra por sorpresa en Moscú con su hijo Jack (Jai Courtney) en el lugar y momento equivocados. Con los peores elementos de los bajos fondos rusos tras ellos y luchando contrarreloj para evitar una guerra, los dos McClane descubren que sus métodos opuestos para enfrentarse a las dificultades les pueden venir bien para aunar fuerzas para mantenerse vivos.
























La pelicula NO tiene ninguna marca... solo colocamos el nombre de esta web en las capturas






Código:
General
Format                                   : Matroska
Format version                           : Version 2
File size                                : 3.93 GiB
Duration                                 : 1h 41mn
Overall bit rate                         : 5 558 Kbps
Movie name                               : www.club-hd.com
Encoded date                             : UTC 2013-05-23 21:41:45
Writing application                      : mkvmerge v5.7.0 ('The Whirlwind') built on Jul  8 2012 20:08:51
Writing library                          : libebml v1.2.3 + libmatroska v1.3.0

Video
ID                                       : 1
Format                                   : AVC
Format/Info                              : Advanced Video Codec
Format profile                           : High@L4.1
Format settings, CABAC                   : Yes
Format settings, ReFrames                : 5 frames
Codec ID                                 : V_MPEG4/ISO/AVC
Duration                                 : 1h 41mn
Bit rate                                 : 4 665 Kbps
Width                                    : 1 280 pixels
Height                                   : 696 pixels
Display aspect ratio                     : 1.85:1
Frame rate mode                          : Constant
Frame rate                               : 23.976 fps
Color space                              : YUV
Chroma subsampling                       : 4:2:0
Bit depth                                : 8 bits
Scan type                                : Progressive
Bits/(Pixel*Frame)                       : 0.218
Stream size                              : 3.22 GiB (82%)
Title                                    : www.club-hd.com
Writing library                          : x264 core 133 r2334 a3ac64b
Language                                 : English
Default                                  : Yes
Forced                                   : No

Audio #1
ID                                       : 2
Format                                   : AC-3
Format/Info                              : Audio Coding 3
Mode extension                           : CM (complete main)
Format settings, Endianness              : Big
Codec ID                                 : A_AC3
Duration                                 : 1h 41mn
Bit rate mode                            : Constant
Bit rate                                 : 448 Kbps
Channel(s)                               : 6 channels
Channel positions                        : Front: L C R, Side: L R, LFE
Sampling rate                            : 48.0 KHz
Bit depth                                : 16 bits
Compression mode                         : Lossy
Stream size                              : 324 MiB (8%)
Title                                    : Latino
Language                                 : Spanish
Default                                  : Yes
Forced                                   : No

Audio #2
ID                                       : 3
Format                                   : AC-3
Format/Info                              : Audio Coding 3
Mode extension                           : CM (complete main)
Format settings, Endianness              : Big
Codec ID                                 : A_AC3
Duration                                 : 1h 41mn
Bit rate mode                            : Constant
Bit rate                                 : 448 Kbps
Channel(s)                               : 6 channels
Channel positions                        : Front: L C R, Side: L R, LFE
Sampling rate                            : 48.0 KHz
Bit depth                                : 16 bits
Compression mode                         : Lossy
Stream size                              : 324 MiB (8%)
Title                                    : Inglés
Language                                 : English
Default                                  : No
Forced                                   : No

Text
ID                                       : 4
Format                                   : UTF-8
Codec ID                                 : S_TEXT/UTF8
Codec ID/Info                            : UTF-8 Plain Text
Language                                 : Spanish
Default                                  : No
Forced                                   : No

Menu
00:00:00.000                             : en:00:00:00.000
00:02:45.999                             : en:00:02:45.999
00:05:02.135                             : en:00:05:02.135
00:09:36.242                             : en:00:09:36.242
00:12:13.900                             : en:00:12:13.900
00:15:25.550                             : en:00:15:25.550
00:18:02.999                             : en:00:18:02.999
00:22:31.350                             : en:00:22:31.350
00:28:31.376                             : en:00:28:31.376
00:32:28.863                             : en:00:32:28.863
00:36:05.914                             : en:00:36:05.914
00:39:53.641                             : en:00:39:53.641
00:42:20.621                             : en:00:42:20.621
00:46:04.720                             : en:00:46:04.720
00:50:30.986                             : en:00:50:30.986
00:53:21.657                             : en:00:53:21.657
00:57:05.547                             : en:00:57:05.547
01:01:46.619                             : en:01:01:46.619
01:05:03.650                             : en:01:05:03.650
01:10:24.053                             : en:01:10:24.053
01:14:04.982                             : en:01:14:04.982
01:17:50.416                             : en:01:17:50.416
01:20:18.021                             : en:01:20:18.021
01:24:05.832                             : en:01:24:05.832
01:26:17.923                             : en:01:26:17.923
01:28:05.488                             : en:01:28:05.488
01:32:37.802                             : en:01:32:37.802
01:35:24.927                             : en:01:35:24.927








Enlaces de Mega y Google Drive solo disponibles para Miembros VIP

Compra tu Membresía VIP y apoya a Club-HD!

ATENCIÓN! Tenemos TODO el material de Club-HD disponible por Mega y Google Drive, enlaces 100% activos y online hasta la fecha

Llévate tus cuentas Mega PRO III gratis con tu membresía VIP!
Todos los posts vivos con links de Mega y Google Drive.
Todo el material de Club-HD desbloqueado y sin publicidad.

Click Aquí para más información.



Para ver este contenido oculto, debes dar click en una de las siguientes reacciones : Like Like, Love Love, Haha Haha, Wow Wow, Sad Sad, Angry Angry
 
Última edición por un moderador:

sharklui

Well-known member
Miembro VIP
Registro
28 Ago 2012
Mensajes
1.026
Ubicación
The Matrix
:LXR: y hasta aqui la espera, Revol la trae para elegir, por mi parte me voy por la 1080 :D muchas gracias por todos los aportes que con tanto esfuerzos haces a la comunidad :aplausos:, Eres el mejor, mil Bendiciones y Exitos para seguir adelante con esta gran labor !!! :dplgar::dplgar:
 

Corvata

New member
Registro
30 Ago 2012
Mensajes
225
Excelente.. la estaba esperando con ansias! Muchisimas gracias equipo de Club-HD son lo mas grande que hay =D
 

Usuarios Que Están Viendo Este Tema (Total: 1, Miembros: 0, Invitados: 1)

Quién Leyó Este Tema (Total Miembros: 2)

Arriba