A Haunted House (2013) m-720p Audio Inglés [Subt. Esp] (Comedia)

Maestro Revolver

Well-known member
Miembro del Staff
Administrador
Registro
9 Ago 2012
Mensajes
3.569
Reacciones
59.364
Puntos
113

Reputation:









TÍTULO ORIGINAL: A Haunted House
AÑO: 2013
DURACIÓN: 86 min.
PAÍS: USA
DIRECTOR: Mike Tiddes
GUIÓN: Marlon Wayans, Rick Alvarez
REPARTO: Marlon Wayans, Nick Swardson, David Koechner, Essence Atkins, Cedric the Entertainer, Bobbie Lee, Dave Sheridan, Alanna Ubach, Jamie Noel, Liana Mendoza
PRODUCTORA: Open Road Films
GÉNERO: Comedia | Parodia. Comedia de terror. Casas encantadas
: http://www.imdb.com/title/tt2243537/






Cuando los recién casados ​​Malcolm (Wayans) y Kisha (Essence Atkins) se mudan en su casa de ensueño, pronto descubren que no están solos. Pero no es la casa que está embrujada, sino su esposa que está poseída por espíritus - o como lo llama Malcolm - "problema en la relación". Malcolm contrata a todo el mundo de un sacerdote a caza fantasmas de hoy en día para librarla del demonio, decidido a no dejar que el espíritu maligno arruine su matrimonio... o por el caso su vida sexual.
























La pelicula NO tiene ninguna marca... solo colocamos el nombre de esta web en las capturas






Código:
General
Format                                   : Matroska
Format version                           : Version 2
File size                                : 1.90 GiB
Duration                                 : 1h 26mn
Overall bit rate                         : 3 153 Kbps
Movie name                               : www.club-hd.com
Encoded date                             : UTC 2013-04-14 19:37:41
Writing application                      : mkvmerge v5.7.0 ('The Whirlwind') built on Jul  8 2012 20:08:51
Writing library                          : libebml v1.2.3 + libmatroska v1.3.0

Video
ID                                       : 1
Format                                   : AVC
Format/Info                              : Advanced Video Codec
Format profile                           : High@L4.1
Format settings, CABAC                   : Yes
Format settings, ReFrames                : 9 frames
Codec ID                                 : V_MPEG4/ISO/AVC
Duration                                 : 1h 26mn
Bit rate                                 : 2 705 Kbps
Width                                    : 1 280 pixels
Height                                   : 694 pixels
Display aspect ratio                     : 1.85:1
Frame rate mode                          : Constant
Frame rate                               : 23.976 fps
Color space                              : YUV
Chroma subsampling                       : 4:2:0
Bit depth                                : 8 bits
Scan type                                : Progressive
Bits/(Pixel*Frame)                       : 0.127
Stream size                              : 1.60 GiB (84%)
Title                                    : www.club-hd.com
Writing library                          : x264 core 130 r2273 b3065e6
Language                                 : English
Default                                  : Yes
Forced                                   : No

Audio
ID                                       : 2
Format                                   : AC-3
Format/Info                              : Audio Coding 3
Mode extension                           : CM (complete main)
Format settings, Endianness              : Big
Codec ID                                 : A_AC3
Duration                                 : 1h 26mn
Bit rate mode                            : Constant
Bit rate                                 : 448 Kbps
Channel(s)                               : 6 channels
Channel positions                        : Front: L C R, Side: L R, LFE
Sampling rate                            : 48.0 KHz
Bit depth                                : 16 bits
Compression mode                         : Lossy
Stream size                              : 277 MiB (14%)
Title                                    : www.club-hd.com
Language                                 : English
Default                                  : Yes
Forced                                   : No

Text
ID                                       : 3
Format                                   : UTF-8
Codec ID                                 : S_TEXT/UTF8
Codec ID/Info                            : UTF-8 Plain Text
Language                                 : Spanish
Default                                  : Yes
Forced                                   : No

Menu
00:00:00.000                             : en:Chapter 1
00:04:18.967                             : en:Chapter 2
00:06:59.377                             : en:Chapter 3
00:11:49.334                             : en:Chapter 4
00:15:40.606                             : en:Chapter 5
00:17:27.171                             : en:Chapter 6
00:22:14.750                             : en:Chapter 7
00:28:05.559                             : en:Chapter 8
00:33:22.209                             : en:Chapter 9
00:37:39.340                             : en:Chapter 10
00:42:42.018                             : en:Chapter 11
00:47:30.973                             : en:Chapter 12
00:50:04.585                             : en:Chapter 13
00:53:33.794                             : en:Chapter 14
00:57:44.586                             : en:Chapter 15
01:02:17.567                             : en:Chapter 16
01:07:58.116                             : en:Chapter 17
01:12:58.583                             : en:Chapter 18
01:18:26.493                             : en:Chapter 19
01:21:36.892                             : en:Chapter 20








Enlaces de Mega y Fireload solo disponibles para Miembros VIP

Compra tu Membresía VIP y apoya a Club-HD!

ATENCIÓN! Tenemos TODO el material de Club-HD disponible por Mega y Fireload, enlaces 100% activos y online hasta la fecha

Llévate tus cuentas Mega PRO II gratis con tu membresía VIP!
Todos los posts vivos con links de Mega y Fireload.
Todo el material de Club-HD desbloqueado y sin publicidad.

Click Aquí para más información.



Para ver este contenido oculto, debes dar click en una de las siguientes reacciones : Like Like, Love Love, Haha Haha, Wow Wow, Sad Sad, Angry Angry

 
Última edición por un moderador:

Mate78

Ladron de mi cerebro
Miembro del Staff
Súper Moderador
Registro
27 Ago 2012
Mensajes
1.236
Reacciones
920
Puntos
113

Reputation:

Terrible estreno , gracias Bestia !!!! :dplgar:
 

Usuarios Que Están Viendo Este Tema (Total: 1, Miembros: 0, Invitados: 1)

Arriba