Abraham Lincoln: Vampire Hunter (2012) m-720p Dual Latino-Inglés [Subt. Esp-Ing] (Fantástico. Terror)

Maestro Revolver

Well-known member
Miembro del Staff
Administrador
Registro
9 Ago 2012
Mensajes
3.569
Reacciones
59.350
Puntos
113

Reputation:









TÍTULO ORIGINAL: Abraham Lincoln: Vampire Hunter
AÑO: 2012
DURACIÓN: 105 min.
PAÍS: USA
DIRECTOR: Timur Bekmambetov
GUIÓN: Seth Grahame-Smith, Simon Kinberg (Novela: Seth Grahame-Smith)
REPARTO: Benjamin Walker, Mary Elizabeth Winstead, Dominic Cooper, Rufus Sewell, Marton Csokas, Anthony Mackie, Robin McLeavy, Jimmi Simpson, Jaqueline Fleming, Alan Tudyk
PRODUCTORA: Abraham Productions / Bazelevs Production / Tim Burton Productions
GÉNERO: Fantástico. Terror. Thriller | Vampiros. Siglo XIX
http://www.imdb.com/title/tt1611224/





La madre del Presidente Lincoln es asesinada por una criatura sobrenatural, hecho que alimenta su pasión por acabar con los vampiros y todos sus aliados.
























La pelicula NO tiene ninguna marca... solo colocamos el nombre de esta web en las capturas






Código:
General
Format                           : Matroska
Format version                   : Version 2
File size                        : 2.73 GiB
Duration                         : 1h 45mn
Overall bit rate                 : 3 716 Kbps
Movie name                       : www.club-hd.com
Encoded date                     : UTC 2012-10-13 23:24:03
Writing application              : mkvmerge v5.7.0 ('The Whirlwind') built on Jul  8 2012 20:08:51
Writing library                  : libebml v1.2.3 + libmatroska v1.3.0

Video
ID                               : 1
Format                           : AVC
Format/Info                      : Advanced Video Codec
Format profile                   : High@L4.1
Format settings, CABAC           : Yes
Format settings, ReFrames        : 8 frames
Codec ID                         : V_MPEG4/ISO/AVC
Duration                         : 1h 45mn
Bit rate                         : 2 630 Kbps
Width                            : 1 280 pixels
Height                           : 534 pixels
Display aspect ratio             : 2.40:1
Frame rate                       : 23.976 fps
Color space                      : YUV
Chroma subsampling               : 4:2:0
Bit depth                        : 8 bits
Scan type                        : Progressive
Bits/(Pixel*Frame)               : 0.160
Stream size                      : 1.87 GiB (69%)
Title                            : www.club-hd.com
Writing library                  : x264 core 128 r2216 198a7ea
Language                         : English
Default                          : Yes
Forced                           : No

Audio #1
ID                               : 2
Format                           : AC-3
Format/Info                      : Audio Coding 3
Mode extension                   : CM (complete main)
Codec ID                         : A_AC3
Duration                         : 1h 45mn
Bit rate mode                    : Constant
Bit rate                         : 448 Kbps
Channel(s)                       : 6 channels
Channel positions                : Front: L C R, Side: L R, LFE
Sampling rate                    : 48.0 KHz
Bit depth                        : 16 bits
Compression mode                 : Lossy
Stream size                      : 336 MiB (12%)
Title                            : www.club-hd.com  >>  Latino
Language                         : Spanish
Default                          : Yes
Forced                           : No

Audio #2
ID                               : 3
Format                           : AC-3
Format/Info                      : Audio Coding 3
Mode extension                   : CM (complete main)
Codec ID                         : A_AC3
Duration                         : 1h 45mn
Bit rate mode                    : Constant
Bit rate                         : 640 Kbps
Channel(s)                       : 6 channels
Channel positions                : Front: L C R, Side: L R, LFE
Sampling rate                    : 48.0 KHz
Bit depth                        : 16 bits
Compression mode                 : Lossy
Stream size                      : 481 MiB (17%)
Title                            : www.club-hd.com  >>  Inglés
Language                         : English
Default                          : No
Forced                           : No

Text #1
ID                               : 4
Format                           : UTF-8
Codec ID                         : S_TEXT/UTF8
Codec ID/Info                    : UTF-8 Plain Text
Title                            : Forzados
Language                         : Spanish
Default                          : Yes
Forced                           : No

Text #2
ID                               : 5
Format                           : UTF-8
Codec ID                         : S_TEXT/UTF8
Codec ID/Info                    : UTF-8 Plain Text
Language                         : Spanish
Default                          : No
Forced                           : No

Text #3
ID                               : 6
Format                           : UTF-8
Codec ID                         : S_TEXT/UTF8
Codec ID/Info                    : UTF-8 Plain Text
Language                         : English
Default                          : No
Forced                           : No

Menu
00:00:00.000                     : en:Chapter 1
00:03:48.478                     : en:Chapter 2
00:06:52.579                     : en:Chapter 3
00:11:06.457                     : en:Chapter 4
00:15:10.535                     : en:Chapter 5
00:20:07.790                     : en:Chapter 6
00:26:46.355                     : en:Chapter 7
00:29:22.135                     : en:Chapter 8
00:34:13.009                     : en:Chapter 9
00:39:04.884                     : en:Chapter 10
00:42:42.810                     : en:Chapter 11
00:47:25.468                     : en:Chapter 12
00:52:50.918                     : en:Chapter 13
01:00:39.302                     : en:Chapter 14
01:05:16.621                     : en:Chapter 15
01:10:33.563                     : en:Chapter 16
01:13:21.939                     : en:Chapter 17
01:16:41.555                     : en:Chapter 18
01:18:46.972                     : en:Chapter 19
01:22:41.373                     : en:Chapter 20
01:25:28.123                     : en:Chapter 21
01:29:00.835                     : en:Chapter 22
01:32:23.496                     : en:Chapter 23
01:37:55.119                     : en:Chapter 24










Enlaces de Mega y Fireload solo disponibles para Miembros VIP

Compra tu Membresía VIP y apoya a Club-HD!

ATENCIÓN! Tenemos TODO el material de Club-HD disponible por Mega y Fireload, enlaces 100% activos y online hasta la fecha

Llévate tus cuentas Mega PRO II gratis con tu membresía VIP!
Todos los posts vivos con links de Mega y Fireload.
Todo el material de Club-HD desbloqueado y sin publicidad.

Click Aquí para más información.




Enlaces de Mega y Fireload solo disponibles para Miembros VIP

Compra tu Membresía VIP y apoya a Club-HD!

ATENCIÓN! Tenemos TODO el material de Club-HD disponible por Mega y Fireload, enlaces 100% activos y online hasta la fecha

Llévate tus cuentas Mega PRO II gratis con tu membresía VIP!
Todos los posts vivos con links de Mega y Fireload.
Todo el material de Club-HD desbloqueado y sin publicidad.

Click Aquí para más información.



Para ver este contenido oculto, debes dar click en una de las siguientes reacciones : Like Like, Love Love, Haha Haha, Wow Wow, Sad Sad, Angry Angry
 
Última edición:

Omar Herrera

Well-known member
Miembro del Staff
Súper Moderador
Registro
27 Ago 2012
Mensajes
1.234
Reacciones
325
Puntos
83
Edad
32
Ubicación
Managua

Reputation:

Y la espera ha termindado!!! Gracias amigo Revolver!
Desc_g_

Sera que la Era del Hielo 4 se dilate?
 

trailblazer 2.0

Well-known member
Miembro del Staff
Súper Moderador
Registro
28 Ago 2012
Mensajes
2.787
Reacciones
1.120
Puntos
113
Ubicación
Ciudad Macross

Reputation:

gracias maestro, me quedo con esta, ahora van a estar pidiendo la era del hielo 4 y the amazing spiderman, jajjaa saludos Revolver machine
 

angumon30

Active member
Registro
27 Ago 2012
Mensajes
1.093
Reacciones
15
Puntos
38
Edad
41

Reputation:

Muchas gracias tambien me quedo con esta para la coleccion
 

Omar Herrera

Well-known member
Miembro del Staff
Súper Moderador
Registro
27 Ago 2012
Mensajes
1.234
Reacciones
325
Puntos
83
Edad
32
Ubicación
Managua

Reputation:

gracias maestro, me quedo con esta, ahora van a estar pidiendo la era del hielo 4 y the amazing spiderman, jajjaa saludos Revolver machine

:rs: asi es amigo, y esque estos chicos nos tienen mal acostumbrados, son tan buenos en lo que hacen que a veces se nos olvidan que son gente como tu y como yo cool2
Pero bueno, la era del hielo creo que estara muy pronto por aca, pero con spiderman creo que dilatara unas semanas mas
 

Usuarios Que Están Viendo Este Tema (Total: 1, Miembros: 0, Invitados: 1)

Arriba