Ace Ventura: When Nature Calls (1995) 720p BDRip Dual Latino-Inglés [Subt. Esp] (Comedia)

Maestro Revolver

Well-known member
Miembro del Staff
Administrador
Registro
9 Ago 2012
Mensajes
3.567








TÍTULO ORIGINAL: Ace Ventura: When Nature Calls
AÑO: 1995
DURACIÓN: 91 min.
PAÍS: USA
DIRECTOR: Steve Oedekerk
GUIÓN: Steve Oedekerk
REPARTO: Jim Carrey, Ian McNeice, Simon Callow, Maynard Eziashi, Bob Gunton, Sophie Okonedo, Tommy Davidson, Adewale Akinnuoye-Agbaje
PRODUCTORA: Morgan Creek production
GÉNERO: Comedia. Aventuras | Secuela. África
: http://www.imdb.com/title/tt0112281/






Intentando superar el trauma que le ha dejado el fracaso de su última misión, en la que no pudo evitar que muriera el mapache que tenía que rescatar, el inefable detective Ace Ventura se retira a un monasterio budista. Pero, una vez allí, un extraño personaje le ofrece una fuerte suma de dinero para que trate de encontrar al animal sagrado de una tribu.
























La pelicula NO tiene ninguna marca... solo colocamos el nombre de esta web en las capturas






Código:
General
Format                                   : Matroska
Format version                           : Version 2
File size                                : 3.93 GiB
Duration                                 : 1h 34mn
Overall bit rate                         : 5 975 Kbps
Movie name                               : www.club-hd.com
Encoded date                             : UTC 2013-10-04 02:56:22
Writing application                      : mkvmerge v5.7.0 ('The Whirlwind') built on Jul  8 2012 20:08:51
Writing library                          : libebml v1.2.3 + libmatroska v1.3.0

Video
ID                                       : 1
Format                                   : AVC
Format/Info                              : Advanced Video Codec
Format profile                           : High@L4.1
Format settings, CABAC                   : Yes
Format settings, ReFrames                : 5 frames
Codec ID                                 : V_MPEG4/ISO/AVC
Duration                                 : 1h 34mn
Bit rate                                 : 5 142 Kbps
Width                                    : 1 280 pixels
Height                                   : 536 pixels
Display aspect ratio                     : 2.40:1
Frame rate mode                          : Constant
Frame rate                               : 23.976 fps
Color space                              : YUV
Chroma subsampling                       : 4:2:0
Bit depth                                : 8 bits
Scan type                                : Progressive
Bits/(Pixel*Frame)                       : 0.313
Stream size                              : 3.30 GiB (84%)
Title                                    : www.club-hd.com
Writing library                          : x264 core 135 r2345 f0c1c53
Language                                 : English
Default                                  : Yes
Forced                                   : No

Audio #1
ID                                       : 2
Format                                   : AC-3
Format/Info                              : Audio Coding 3
Format profile                           : Dolby Digital
Mode extension                           : CM (complete main)
Format settings, Endianness              : Big
Codec ID                                 : A_AC3
Duration                                 : 1h 34mn
Bit rate mode                            : Constant
Bit rate                                 : 192 Kbps
Channel(s)                               : 2 channels
Channel positions                        : Front: L R
Sampling rate                            : 48.0 KHz
Bit depth                                : 16 bits
Compression mode                         : Lossy
Stream size                              : 129 MiB (3%)
Title                                    : www.club-hd.com  >>  Latino
Language                                 : Spanish
Default                                  : Yes
Forced                                   : No

Audio #2
ID                                       : 3
Format                                   : AC-3
Format/Info                              : Audio Coding 3
Mode extension                           : CM (complete main)
Format settings, Endianness              : Big
Codec ID                                 : A_AC3
Duration                                 : 1h 34mn
Bit rate mode                            : Constant
Bit rate                                 : 640 Kbps
Channel(s)                               : 5 channels
Channel positions                        : Front: L C R, Side: L R
Sampling rate                            : 48.0 KHz
Bit depth                                : 16 bits
Compression mode                         : Lossy
Stream size                              : 431 MiB (11%)
Title                                    : www.club-hd.com  >>  Inglés
Language                                 : English
Default                                  : No
Forced                                   : No

Text
ID                                       : 4
Format                                   : UTF-8
Codec ID                                 : S_TEXT/UTF8
Codec ID/Info                            : UTF-8 Plain Text
Language                                 : Spanish
Default                                  : No
Forced                                   : No

Menu
00:00:00.000                             : en:00:00:00.000
00:02:58.845                             : en:00:02:58.845
00:03:55.902                             : en:00:03:55.902
00:06:01.194                             : en:00:06:01.194
00:10:51.860                             : en:00:10:51.860
00:12:26.204                             : en:00:12:26.204
00:14:20.401                             : en:00:14:20.401
00:16:59.018                             : en:00:16:59.018
00:18:51.213                             : en:00:18:51.213
00:21:47.973                             : en:00:21:47.973
00:24:27.633                             : en:00:24:27.633
00:26:48.440                             : en:00:26:48.440
00:32:21.648                             : en:00:32:21.648
00:34:37.993                             : en:00:34:37.993
00:35:29.044                             : en:00:35:29.044
00:39:14.894                             : en:00:39:14.894
00:41:31.030                             : en:00:41:31.030
00:43:40.535                             : en:00:43:40.535
00:47:15.124                             : en:00:47:15.124
00:50:22.144                             : en:00:50:22.144
00:51:53.736                             : en:00:51:53.736
00:55:13.644                             : en:00:55:13.644
00:56:37.769                             : en:00:56:37.769
00:58:41.685                             : en:00:58:41.685
01:00:32.337                             : en:01:00:32.337
01:03:02.904                             : en:01:03:02.904
01:04:08.511                             : en:01:04:08.511
01:06:58.640                             : en:01:06:58.640
01:09:26.829                             : en:01:09:26.829
01:12:25.591                             : en:01:12:25.591
01:17:27.810                             : en:01:17:27.810
01:17:48.497                             : en:01:17:48.497
01:20:09.930                             : en:01:20:09.930
01:22:44.459                             : en:01:22:44.459
01:25:32.127                             : en:01:25:32.127
01:26:43.031                             : en:01:26:43.031








Enlaces de Mega y Google Drive solo disponibles para Miembros VIP

Compra tu Membresía VIP y apoya a Club-HD!

ATENCIÓN! Tenemos TODO el material de Club-HD disponible por Mega y Google Drive, enlaces 100% activos y online hasta la fecha

Llévate tus cuentas Mega PRO III gratis con tu membresía VIP!
Todos los posts vivos con links de Mega y Google Drive.
Todo el material de Club-HD desbloqueado y sin publicidad.

Click Aquí para más información.


Para ver este contenido oculto, debes dar click en una de las siguientes reacciones : Like Like, Love Love, Haha Haha, Wow Wow, Sad Sad, Angry Angry
 
Última edición por un moderador:

AleMan80

New member
Registro
30 Ago 2012
Mensajes
1.123
Ubicación
Buenos Aires
GRACIAS Revolver :pgarb:

Jim Carrey es un maestro del humor, siempre me mato de la risa con sus películas :crcjd:S_T1
Aunque cual es la diferencia con la versión 720p ya publicada hace un tiempo atras :cnfus: ídem para la 1
Saludo bye
 

Usuarios Que Están Viendo Este Tema (Total: 1, Miembros: 0, Invitados: 1)

Quién Leyó Este Tema (Total Miembros: 3)

Arriba