Alex Cross (2012) m-720p Dual Latino-Inglés [Subt. Esp] (Thriller. Intriga)

Maestro Revolver

Well-known member
Miembro del Staff
Administrador
Registro
9 Ago 2012
Mensajes
3.569
Reacciones
59.361
Puntos
113

Reputation:


Aporte Recuperado gracias a nuestro amigo HemoarAgros







TÍTULO ORIGINAL: Alex Cross
AÑO: 2012
DURACIÓN: 101 min.
PAÍS: USA
DIRECTOR: Rob Cohen
GUIÓN: Marc Moss, Kerry Williamson (Novela: James Patterson)
REPARTO: Tyler Perry, Matthew Fox, Edward Burns, Jean Reno, Rachel Nichols, John C. McGinley, Giancarlo Esposito
PRODUCTORA: QED International / Black Bear Pictures / Herrick Entertainment
GÉNERO: Thriller. Intriga | Crimen
: http://www.imdb.es/title/tt1712170/






Alex, detective de la policía y psicólogo, está investigando las extrañas muestres de los miembros de una banda criminal. Todo parece indicar que se trata de un ajuste de cuentas entre gángsters pero a medida que se van conociendo los detalles, los crímenes se empiezan a parecer sospechosamente a otras muertes anteriores atribuidas a un asesino en serie llamado Sullivan. Cuando Alex se acerque demasiado al asesino, éste reaccionará matando a su esposa María y amenazando con hacer lo mismo con sus hijos. Alex, deberá utilizar todos los métodos que estén a su alcance para atrapar a Sullivan antes de que sea demasiado tarde.
























La pelicula NO tiene ninguna marca... solo colocamos el nombre de esta web en las capturas






Código:
General
Format                                   : Matroska
Format version                           : Version 2
File size                                : 2.52 GiB
Duration                                 : 1h 41mn
Overall bit rate                         : 3 555 Kbps
Movie name                               : www.club-hd.com
Encoded date                             : UTC 2013-02-09 20:43:39
Writing application                      : mkvmerge v5.7.0 ('The Whirlwind') built on Jul  8 2012 20:08:51
Writing library                          : libebml v1.2.3 + libmatroska v1.3.0

Video
ID                                       : 1
Format                                   : AVC
Format/Info                              : Advanced Video Codec
Format profile                           : High@L4.1
Format settings, CABAC                   : Yes
Format settings, ReFrames                : 9 frames
Codec ID                                 : V_MPEG4/ISO/AVC
Duration                                 : 1h 41mn
Bit rate                                 : 2 662 Kbps
Width                                    : 1 280 pixels
Height                                   : 720 pixels
Display aspect ratio                     : 16:9
Frame rate mode                          : Constant
Frame rate                               : 24.000 fps
Color space                              : YUV
Chroma subsampling                       : 4:2:0
Bit depth                                : 8 bits
Scan type                                : Progressive
Bits/(Pixel*Frame)                       : 0.120
Stream size                              : 1.83 GiB (73%)
Title                                    : www.club-hd.com
Writing library                          : x264 core 129 r2230 1cffe9f
Language                                 : English
Default                                  : Yes
Forced                                   : No

Audio #1
ID                                       : 2
Format                                   : AC-3
Format/Info                              : Audio Coding 3
Mode extension                           : CM (complete main)
Format settings, Endianness              : Big
Codec ID                                 : A_AC3
Duration                                 : 1h 41mn
Bit rate mode                            : Constant
Bit rate                                 : 448 Kbps
Channel(s)                               : 6 channels
Channel positions                        : Front: L C R, Side: L R, LFE
Sampling rate                            : 48.0 KHz
Bit depth                                : 16 bits
Compression mode                         : Lossy
Stream size                              : 325 MiB (13%)
Title                                    : www.club-hd.com  >>  Latino
Language                                 : Spanish
Default                                  : Yes
Forced                                   : No

Audio #2
ID                                       : 3
Format                                   : AC-3
Format/Info                              : Audio Coding 3
Mode extension                           : CM (complete main)
Format settings, Endianness              : Big
Codec ID                                 : A_AC3
Duration                                 : 1h 41mn
Bit rate mode                            : Constant
Bit rate                                 : 448 Kbps
Channel(s)                               : 6 channels
Channel positions                        : Front: L C R, Side: L R, LFE
Sampling rate                            : 48.0 KHz
Bit depth                                : 16 bits
Compression mode                         : Lossy
Stream size                              : 325 MiB (13%)
Title                                    : www.club-hd.com  >>  Ingés
Language                                 : English
Default                                  : No
Forced                                   : No

Text
ID                                       : 4
Format                                   : UTF-8
Codec ID                                 : S_TEXT/UTF8
Codec ID/Info                            : UTF-8 Plain Text
Language                                 : Spanish
Default                                  : No
Forced                                   : No

Menu
00:00:00.000                             : en:Chapter 1
00:03:06.250                             : en:Chapter 2
00:08:32.708                             : en:Chapter 3
00:14:43.292                             : en:Chapter 4
00:22:34.000                             : en:Chapter 5
00:31:05.458                             : en:Chapter 6
00:35:22.500                             : en:Chapter 7
00:39:46.125                             : en:Chapter 8
00:46:41.167                             : en:Chapter 9
00:48:43.000                             : en:Chapter 10
00:56:28.500                             : en:Chapter 11
01:03:28.167                             : en:Chapter 12
01:07:51.375                             : en:Chapter 13
01:12:58.750                             : en:Chapter 14
01:18:01.583                             : en:Chapter 15
01:23:09.792                             : en:Chapter 16
01:28:31.667                             : en:Chapter 17
01:33:49.083                             : en:Chapter 18







Código:
www.club-hd.com[/CENTER]










Enlaces de Mega y Fireload solo disponibles para Miembros VIP

Compra tu Membresía VIP y apoya a Club-HD!

ATENCIÓN! Tenemos TODO el material de Club-HD disponible por Mega y Fireload, enlaces 100% activos y online hasta la fecha

Llévate tus cuentas Mega PRO II gratis con tu membresía VIP!
Todos los posts vivos con links de Mega y Fireload.
Todo el material de Club-HD desbloqueado y sin publicidad.

Click Aquí para más información.




Enlaces de Mega y Fireload solo disponibles para Miembros VIP

Compra tu Membresía VIP y apoya a Club-HD!

ATENCIÓN! Tenemos TODO el material de Club-HD disponible por Mega y Fireload, enlaces 100% activos y online hasta la fecha

Llévate tus cuentas Mega PRO II gratis con tu membresía VIP!
Todos los posts vivos con links de Mega y Fireload.
Todo el material de Club-HD desbloqueado y sin publicidad.

Click Aquí para más información.



Para ver este contenido oculto, debes dar click en una de las siguientes reacciones : Like Like, Love Love, Haha Haha, Wow Wow, Sad Sad, Angry Angry

 
Última edición:

Vicure

Well-known member
Registro
27 Ago 2012
Mensajes
1.752
Reacciones
52
Puntos
48

Reputation:

Primero en postear. Cooool aportazo, descargando
 

Mate78

Ladron de mi cerebro
Miembro del Staff
Súper Moderador
Registro
27 Ago 2012
Mensajes
1.235
Reacciones
918
Puntos
113

Reputation:

Esta peli esta excelente , gracias Bestia , hoy estas intratableeeee !!!!!:crcjd::aplausos:
 

kenny407

New member
Registro
27 Ago 2012
Mensajes
490
Reacciones
29
Puntos
0
Edad
27

Reputation:

Excelente aporte, siguen pasados los administradores!! Los amo! Desc_g_
 

Usuarios Que Están Viendo Este Tema (Total: 1, Miembros: 0, Invitados: 1)

Arriba