• Este aviso va dirigido a todos los nuevos miembros recien llegados a Club-HD. Les recordamos que la direccion URL de este sitio web es , asi que deben acceder únicamente por esta URL. Sean todos bienvenidos al Club!

Alexander (2004) 1080p BDRip HEVC Latino-Inglés [Subt. Esp] (Aventuras. Histórico)

Dante Inferno

🔥Dante Inferno🔥
Miembro del Staff
Moderador
Uploader
Registrado
24 May 2016
Mensajes
604
Puntos de reacción
12,215
Puntos
93
Ubicación
Argentina
Sitio web
club-hd.com



Otro títulos: Alejandro Magno


SINOPSIS

Antigüedad, Helenismo. Alejandro (356-323 a. C.), rey de Macedonia, comenzó a reinar a los veinte años. Se apoderó primero de Grecia y, después de conquistar el inmenso Imperio Persa, siguió avanzando hacia la India. Fue un gran estratega que nunca perdió una batalla, un visionario cuyos sueños, hazañas y destino dejaron huella en la Historia. Cuando murió, a los 33 años, había forjado un imperio sin precedentes en la historia. Los personajes más influyentes de su vida fueron: Filippo, su padre; Olimpia, su madre; Hefestión, su gran amigo; Roxana, su ambiciosa mujer, y el general Ptolomeo, confidente y leal compañero de armas.

MÁS INFORMACIÓN




TRAILER



CAPTURAS








MEDIAINFO

Código:
General
Complete name                            : Alexander (2004) 1080p BDRip HEVC Latino-Inglés [Subt. Esp].mkv
Format                                   : Matroska
Format version                           : Version 4
File size                                : 6.38 GiB
Duration                                 : 2 h 55 min
Overall bit rate                         : 5 205 kb/s
Movie name                               : Alexander (2004) 1080p BDRip HEVC Latino-Inglés [Subt. Esp] [www.club-hd.com]
Encoded date                             : UTC 2020-07-23 16:52:26 / UTC 2017-06-13T08:24:15Z
Writing application                      : mkvmerge v27.0.0 ('Metropolis') 64-bit
Writing library                          : libebml v1.3.6 + libmatroska v1.4.9 / Lavf57.7.2

Video
ID                                       : 1
Format                                   : HEVC
Format/Info                              : High Efficiency Video Coding
Format profile                           : Main@L4@Main
Codec ID                                 : V_MPEGH/ISO/HEVC
Duration                                 : 2 h 55 min
Bit rate                                 : 2 224 kb/s
Width                                    : 1 910 pixels
Height                                   : 818 pixels
Display aspect ratio                     : 2.35:1
Frame rate mode                          : Constant
Frame rate                               : 23.976 (24000/1001) FPS
Color space                              : YUV
Chroma subsampling                       : 4:2:0
Bit depth                                : 8 bits
Bits/(Pixel*Frame)                       : 0.059
Stream size                              : 2.72 GiB (43%)
Title                                    : Alexander (2004) 1080p BDRip HEVC Latino-Inglés [Subt. Esp]
Writing library                          : x265 2.1:[Windows][GCC 5.3.1][64 bit] 8bit
Default                                  : Yes
Forced                                   : No
Color range                              : Limited
Color primaries                          : BT.709
Transfer characteristics                 : BT.709
Matrix coefficients                      : BT.709

Audio #1
ID                                       : 2
Format                                   : AC-3
Format/Info                              : Audio Coding 3
Commercial name                          : Dolby Digital
Codec ID                                 : A_AC3
Duration                                 : 2 h 55 min
Bit rate mode                            : Constant
Bit rate                                 : 192 kb/s
Channel(s)                               : 2 channels
Channel layout                           : L R
Sampling rate                            : 48.0 kHz
Frame rate                               : 31.250 FPS (1536 SPF)
Compression mode                         : Lossy
Stream size                              : 241 MiB (4%)
Title                                    : Español Latino
Language                                 : Spanish
Service kind                             : Complete Main
Default                                  : Yes
Forced                                   : No

Audio #2
ID                                       : 3
Format                                   : AC-3
Format/Info                              : Audio Coding 3
Commercial name                          : Dolby Digital
Codec ID                                 : A_AC3
Duration                                 : 2 h 55 min
Bit rate mode                            : Constant
Bit rate                                 : 640 kb/s
Channel(s)                               : 6 channels
Channel layout                           : L R C LFE Ls Rs
Sampling rate                            : 48.0 kHz
Frame rate                               : 31.250 FPS (1536 SPF)
Compression mode                         : Lossy
Stream size                              : 803 MiB (12%)
Title                                    : Inglés
Language                                 : English
Service kind                             : Complete Main
Default                                  : No
Forced                                   : No

Audio #3
ID                                       : 4
Format                                   : DTS XBR
Format/Info                              : Digital Theater Systems
Commercial name                          : DTS-HD High Resolution Audio
Codec ID                                 : A_DTS
Duration                                 : 2 h 55 min
Bit rate mode                            : Constant
Bit rate                                 : 2 046 kb/s
Channel(s)                               : 6 channels
Channel layout                           : C L R Ls Rs LFE
Sampling rate                            : 48.0 kHz
Frame rate                               : 93.750 FPS (512 SPF)
Bit depth                                : 16 bits
Compression mode                         : Lossy
Stream size                              : 2.51 GiB (39%)
Title                                    : Inglés
Language                                 : English
Default                                  : No
Forced                                   : No

Text
ID                                       : 5
Format                                   : UTF-8
Codec ID                                 : S_TEXT/UTF8
Codec ID/Info                            : UTF-8 Plain Text
Title                                    : Subtítulos Español
Language                                 : Spanish
Default                                  : No
Forced                                   : No

CONTRASEÑA





Disponible
⭐¡VER ONLINE y DESCARGAR 1 LINK!⭐


Enlaces de Mega y Google Drive solo disponibles para Miembros VIP

Compra tu Membresía VIP y apoya a Club-HD!

ATENCIÓN! Tenemos TODO el material de Club-HD disponible por Mega y Google Drive, enlaces 100% activos y online hasta la fecha

Llévate tus cuentas Mega PRO II gratis con tu membresía VIP!
Todos los posts vivos con links de Mega y Google Drive.
Todo el material de Club-HD desbloqueado y sin publicidad.

Click Aquí para más información.

DESCARGAR



Enlaces de Mega y Google Drive solo disponibles para Miembros VIP

Compra tu Membresía VIP y apoya a Club-HD!

ATENCIÓN! Tenemos TODO el material de Club-HD disponible por Mega y Google Drive, enlaces 100% activos y online hasta la fecha

Llévate tus cuentas Mega PRO II gratis con tu membresía VIP!
Todos los posts vivos con links de Mega y Google Drive.
Todo el material de Club-HD desbloqueado y sin publicidad.

Click Aquí para más información.



Para ver este contenido oculto, debes dar click en una de las siguientes reacciones: Like Like, Love Love, Haha Haha, Wow Wow, Sad Sad, Angry Angry



Para ver este contenido oculto, debes dar click en una de las siguientes reacciones: Like Like, Love Love, Haha Haha, Wow Wow, Sad Sad, Angry Angry



Para ver este contenido oculto, debes dar click en una de las siguientes reacciones: Like Like, Love Love, Haha Haha, Wow Wow, Sad Sad, Angry Angry



Para ver este contenido oculto, debes dar click en una de las siguientes reacciones: Like Like, Love Love, Haha Haha, Wow Wow, Sad Sad, Angry Angry
 

Max

Admin
Miembro del Staff
Administrador
Registrado
8 Ago 2012
Mensajes
5,180
Puntos de reacción
21,682
Puntos
113
Yo que andaba editando el audio para version Final Cut (y)
Por suerte hay varias versiones de este gran clásico, y a todas las podemos trae al Club, Uziel. También ya se está trabajando en la versión Open Matte. :D (y)👏
 

rachi

Active member
Registrado
21 Jul 2018
Mensajes
667
Puntos de reacción
75
Puntos
28
Gracias por el aporte
 

cripp

Well-known member
Registrado
27 Ago 2012
Mensajes
8,117
Puntos de reacción
474
Puntos
113
Gracias por compartir
 

Usuarios Que Están Viendo Este Tema (Total: 1, Miembros: 0, Invitados: 1)

Arriba