American Gangster (2007) EXTENDED m-720p BDRip Dual Latino-Inglés [Subt. Esp] (Thriller. Drama)

Maestro Revolver

Well-known member
Miembro del Staff
Administrador
Registro
9 Ago 2012
Mensajes
3.567








TÍTULO ORIGINAL: American Gangster
AÑO: 2007
DURACIÓN: 118 min.
PAÍS: USA
DIRECTOR: Ridley Scott
GUIÓN: Steven Zaillian
REPARTO: Denzel Washington, Russell Crowe, Carla Gugino, Cuba Gooding Jr., Josh Brolin, Ruby Dee, Chiwetel Ejiofor, RZA, Ted Levine, Armand Assante, Ric Young, Clarence Williams III, John Ortiz, John Hawkes, Jon Polito, Kevin Corrigan, KaDee Strickland, Common, T.I.
PRODUCTORA: Universal Pictures / Imagine Entertainment / Relativity Media / Scott Free Productions
GÉNERO: Thriller. Drama | Neo-noir. Mafia. Drogas. Años 60. Años 70. Basado en hechos reales
: http://www.imdb.com/title/tt0765429/

Premios: 2007: 2 nominaciones al Oscar: Mejor actriz de reparto (Ruby Dee), mejor dirección artística
2007: 3 nominaciones al Globo de Oro, incluyendo mejor película dramática
2007: 5 nominaciones a los BAFTA, incluyendo mejor película, fotografía y guión original
2007: 2 nominaciones Critics' Choice Awards: mejor película y canción





Nueva York, 1968. Frank Lucas (Denzel Washington) es el taciturno chófer de un importante mafioso negro de Harlem. Cuando su jefe muere inesperadamente, Frank aprovecha la oportunidad para construir su propio imperio. Gracias a su talento, se convierte no sólo en el principal narcotraficante de la ciudad, inundando las calles con productos de mejor calidad y precio, sino también en un hombre público muy respetado. Richie Roberts (Russell Crowe), un policía marginado que conoce bien las calles, se da cuenta de que una persona ajena a los clanes trepa por la escalera del poder. Tanto Roberts como Lucas comparten un estricto código ético que les aparta de los demás y los convierte en dos figuras solitarias en lados opuestos de la ley. Cuando se encuentren, el enfrentamiento entre ellos será inevitable.
























La pelicula NO tiene ninguna marca... solo colocamos el nombre de esta web en las capturas






Código:
General
Format                                   : Matroska
Format version                           : Version 2
File size                                : 4.53 GiB
Duration                                 : 2h 55mn
Overall bit rate                         : 3 693 Kbps
Movie name                               : www.club-hd.com
Encoded date                             : UTC 2013-09-12 23:38:24
Writing application                      : mkvmerge v5.7.0 ('The Whirlwind') built on Jul  8 2012 20:08:51
Writing library                          : libebml v1.2.3 + libmatroska v1.3.0

Video
ID                                       : 1
Format                                   : AVC
Format/Info                              : Advanced Video Codec
Format profile                           : High@L4.1
Format settings, CABAC                   : Yes
Format settings, ReFrames                : 5 frames
Codec ID                                 : V_MPEG4/ISO/AVC
Duration                                 : 2h 55mn
Bit rate                                 : 2 787 Kbps
Width                                    : 1 280 pixels
Height                                   : 696 pixels
Display aspect ratio                     : 1.85:1
Frame rate mode                          : Constant
Frame rate                               : 23.976 fps
Color space                              : YUV
Chroma subsampling                       : 4:2:0
Bit depth                                : 8 bits
Scan type                                : Progressive
Bits/(Pixel*Frame)                       : 0.130
Stream size                              : 3.42 GiB (75%)
Title                                    : www.club-hd.com
Writing library                          : x264 core 125 r2200 999b753
Language                                 : English
Default                                  : Yes
Forced                                   : No

Audio #1
ID                                       : 2
Format                                   : AC-3
Format/Info                              : Audio Coding 3
Mode extension                           : CM (complete main)
Format settings, Endianness              : Big
Codec ID                                 : A_AC3
Duration                                 : 2h 55mn
Bit rate mode                            : Constant
Bit rate                                 : 384 Kbps
Channel(s)                               : 6 channels
Channel positions                        : Front: L C R, Side: L R, LFE
Sampling rate                            : 48.0 KHz
Bit depth                                : 16 bits
Compression mode                         : Lossy
Delay relative to video                  : 1s 200ms
Stream size                              : 483 MiB (10%)
Title                                    : www.club-hd.com  >>  Latino UNRATED
Language                                 : Spanish
Default                                  : Yes
Forced                                   : No

Audio #2
ID                                       : 3
Format                                   : AC-3
Format/Info                              : Audio Coding 3
Mode extension                           : CM (complete main)
Format settings, Endianness              : Big
Codec ID                                 : A_AC3
Duration                                 : 2h 55mn
Bit rate mode                            : Constant
Bit rate                                 : 448 Kbps
Channel(s)                               : 6 channels
Channel positions                        : Front: L C R, Side: L R, LFE
Sampling rate                            : 48.0 KHz
Bit depth                                : 16 bits
Compression mode                         : Lossy
Stream size                              : 563 MiB (12%)
Title                                    : www.club-hd.com
Language                                 : English
Default                                  : No
Forced                                   : No

Text #1
ID                                       : 4
Format                                   : UTF-8
Codec ID                                 : S_TEXT/UTF8
Codec ID/Info                            : UTF-8 Plain Text
Title                                    : Forzados
Language                                 : Spanish
Default                                  : Yes
Forced                                   : No

Text #2
ID                                       : 5
Format                                   : UTF-8
Codec ID                                 : S_TEXT/UTF8
Codec ID/Info                            : UTF-8 Plain Text
Title                                    : Completos
Language                                 : Spanish
Default                                  : No
Forced                                   : No




Nota
Al ser una versión Extended se edito el audio Latino (Autor desconocido) y se le agrego partes en ingles (Las partes Extended). Dejo Los subtítulos forzados para esas nuevas escenas Extended donde se habla en ingles, Subtítulos Forzados creados por mi (Revolver22).









Enlaces de Mega y Google Drive solo disponibles para Miembros VIP

Compra tu Membresía VIP y apoya a Club-HD!

ATENCIÓN! Tenemos TODO el material de Club-HD disponible por Mega y Google Drive, enlaces 100% activos y online hasta la fecha

Llévate tus cuentas Mega PRO III gratis con tu membresía VIP!
Todos los posts vivos con links de Mega y Google Drive.
Todo el material de Club-HD desbloqueado y sin publicidad.

Click Aquí para más información.


Para ver este contenido oculto, debes dar click en una de las siguientes reacciones : Like Like, Love Love, Haha Haha, Wow Wow, Sad Sad, Angry Angry



 
Última edición por un moderador:

sunker-123

New member
Registro
27 Ago 2012
Mensajes
2.427
Edad
31
Excelente, master mil gracias, esta la he buscado por un largo tiempo, mil gracias....:dplgar:
 

eliocruz

New member
Registro
7 Jun 2013
Mensajes
50
Subiras la version 1080p??? Por k esta es una exceente peli y t lo agradeceria mucho, grax
 

Usuarios Que Están Viendo Este Tema (Total: 1, Miembros: 0, Invitados: 1)

Quién Leyó Este Tema (Total Miembros: 3)

Arriba