• Este aviso va dirigido a todos los nuevos miembros recien llegados a Club-HD. Les recordamos que la direccion URL de este sitio web es , asi que deben acceder únicamente por esta URL. Sean todos bienvenidos al Club!

American Me (1992) 720p HDDVD Dual Audio Latino-Inglés [Subt. Esp] (Drama)

HemoAr

Dohko de Libra
Administrador
Uploader
Registrado
9 Mar 2013
Mensajes
10,604
Puntos de reacción
50,775
Puntos
113
Ubicación
Rozan
Aporte Recuperado gracias a nuestro amigo clasaase





Título original: American Me
Año: 1992
Duración: 126 min.
País: Estados Unidos
Director: Edward James Olmos
Reparto: Edward James Olmos, Sal López, Vira Montes, William Forsythe, Pepe Serna, Vic Trevino, Danny de la Paz, Evelina Fernández, Daniel Villarreal, Paul Bollen, Jaime Gomez, Cary-Hiroyuki Tagawa, Ron Thompson, Don Pugsley, Dyana Ortelli
Productora: Universal Pictures
Género: Drama | Drogas. Crimen. Mafia. Años 30. Años 40. Basado en hechos reales

Sinopsis: Basada en una historia real, cuenta cómo en los Estados Unidos de los años 30 una pandilla de adolescentes se adentra en el mundo de la delincuencia. Una serie de robos llevan a su cabecilla, Santana, a pasar dieciocho años en prisión.




























General

Format : Matroska
Format version : Version 4 / Version 2
File size : 4.41 GiB
Duration : 2 h 6 min
Overall bit rate : 4 996 kb/s
Movie name : American Me (1992) 720p HDDVD Dual Audio Latino-Inglés
Encoded date : UTC 2017-07-03 18:08:11
Writing application : mkvmerge v9.9.0 ('Pick Up') 64bit
Writing library : libebml v1.3.4 + libmatroska v1.4.5

Video
ID : 1
Format : AVC
Format/Info : Advanced Video Codec
Format profile : High@L4.1
Format settings, CABAC : Yes
Format settings, ReFrames : 4 frames
Codec ID : V_MPEG4/ISO/AVC
Duration : 2 h 5 min
Bit rate : 4 500 kb/s
Width : 1 920 pixels
Height : 1 040 pixels
Display aspect ratio : 1.85:1
Frame rate mode : Constant
Frame rate : 23.976 (24000/1001) FPS
Color space : YUV
Chroma subsampling : 4:2:0
Bit depth : 8 bits
Scan type : Progressive
Bits/(Pixel*Frame) : 0.094
Stream size : 3.90 GiB (88%)
Title : American Me (1992) 720p HDDVD Dual Audio Latino-Inglés
Language : English
Default : Yes
Forced : No
Color range : Limited
Color primaries : BT.709
Transfer characteristics : BT.709
Matrix coefficients : BT.709

Audio #1
ID : 2
Format : AC-3
Format/Info : Audio Coding 3
Mode extension : CM (complete main)
Format settings, Endianness : Big
Codec ID : A_AC3
Duration : 2 h 6 min
Bit rate mode : Constant
Bit rate : 128 kb/s
Channel(s) : 2 channels
Channel positions : Front: L R
Sampling rate : 48.0 kHz
Frame rate : 31.250 FPS (1536 spf)
Bit depth : 16 bits
Compression mode : Lossy
Delay relative to video : -83 ms
Stream size : 116 MiB (3%)
Title : AC3 2.0
Language : Spanish
Default : Yes
Forced : No

Audio #2
ID : 3
Format : AC-3
Format/Info : Audio Coding 3
Mode extension : CM (complete main)
Format settings, Endianness : Big
Codec ID : A_AC3
Duration : 2 h 5 min
Bit rate mode : Constant
Bit rate : 448 kb/s
Channel(s) : 6 channels
Channel positions : Front: L C R, Side: L R, LFE
Sampling rate : 48.0 kHz
Frame rate : 31.250 FPS (1536 spf)
Bit depth : 16 bits
Compression mode : Lossy
Delay relative to video : -5 ms
Stream size : 404 MiB (9%)
Title : AC3 5.1
Language : English
Default : No
Forced : No

Text
ID : 4
Format : UTF-8
Codec ID : S_TEXT/UTF8
Codec ID/Info : UTF-8 Plain Text
Duration : 2 h 2 min
Bit rate : 39 b/s
Count of elements : 1198
Stream size : 35.2 KiB (0%)
Title : Subtitulos_Completos
Language : Spanish
Default : No
Forced : No






Contraseña para extraer: www.club-hd.com

Nota: Los archivos .rev no es necesario descargar al menos que algun .rar este dañado o que este eliminado


Todos los links son Intercambiables



Enlaces de Mega y Google Drive solo disponibles para Miembros VIP

Compra tu Membresía VIP y apoya a Club-HD!

ATENCIÓN! Tenemos TODO el material de Club-HD disponible por Mega y Google Drive, enlaces 100% activos y online hasta la fecha

Llévate tus cuentas Mega PRO II gratis con tu membresía VIP!
Todos los posts vivos con links de Mega y Google Drive.
Todo el material de Club-HD desbloqueado y sin publicidad.

Click Aquí para más información.



Para ver este contenido oculto, debes dar click en una de las siguientes reacciones: Like Like, Love Love, Haha Haha, Wow Wow, Sad Sad, Angry Angry



Para ver este contenido oculto, debes dar click en una de las siguientes reacciones: Like Like, Love Love, Haha Haha, Wow Wow, Sad Sad, Angry Angry
 
Última edición por un moderador:

mgs2005

Well-known member
Registrado
23 Oct 2012
Mensajes
1,301
Puntos de reacción
67
Puntos
48
Gracias Descargando
 

caspercito

Well-known member
Registrado
28 Ago 2012
Mensajes
4,111
Puntos de reacción
85
Puntos
48
MUCHAS GRACIASDesc_g_
 

cripp

Well-known member
Registrado
27 Ago 2012
Mensajes
8,196
Puntos de reacción
495
Puntos
113
Gracias por compartir
 

rasras

Well-known member
Miembro VIP
Registrado
29 Ago 2012
Mensajes
2,662
Puntos de reacción
41
Puntos
48

Usuarios Que Están Viendo Este Tema (Total: 1, Miembros: 0, Invitados: 1)

Arriba