American Pie (1999) m-720p Dual Latino-Inglés [Subt. Esp-Ing] (Comedia)

Maestro Revolver

Well-known member
Miembro del Staff
Administrador
Registro
9 Ago 2012
Mensajes
3.569
Reacciones
59.341
Puntos
113

Reputation:









TÍTULO ORIGINAL: American Pie
AÑO: 1999
DURACIÓN: 98 min.
PAÍS: USA
DIRECTOR: Paul Weitz
GUIÓN: Adam Herz
REPARTO: Jason Biggs, Chris Klein, Thomas Ian Nicholas, Alyson Hannigan, Shannon Elizabeth, Tara Reid, Eddie Kaye Thomas, Seann William Scott, Eugene Levy, Natasha Lyonne, Mena Suvari, Jennifer Coolidge, Chris Owen, Eric Lively, Molly Cheek, Lawrence Pressman, Eden Riegel, Justin Isfeld, John Cho, Veronica Lauren, Eli Marienthal, Casey Affleck, Tara Subkoff, Christina Milian
PRODUCTORA: Universal Pictures / Summit Entertainment / Newmarket Capital Group
GÉNERO: Comedia | Adolescencia. Comedia juvenil. Colegios & Universidad
: http://www.imdb.com/title/tt0163651/






Una legión de jóvenes inexpertos viven obsesionados con el sexo opuesto. Jim, uno de ellos, está desesperado porque todavía es virgen. Además, desde que sus padres le sorprendieron viendo películas pornográficas, su situación en casa ha empeorado, porque su bienintencionado padre pretende ocuparse de su educación sexual; en el colegio, las cosas no van mucho mejor: su relación con una chica, gracias a un programa de intercambio, tiene toda la pinta de fracasar. Así que su último recurso se llama Michelle, una integrante de la banda de música que resulta ser todo un prodigio.
























La pelicula NO tiene ninguna marca... solo colocamos el nombre de esta web en las capturas






Código:
General
Format                                   : Matroska
Format version                           : Version 2
File size                                : 2.32 GiB
Duration                                 : 1h 35mn
Overall bit rate                         : 3 468 Kbps
Movie name                               : www.club-hd.com
Encoded date                             : UTC 2013-01-06 21:24:25
Writing application                      : mkvmerge v5.7.0 ('The Whirlwind') built on Jul  8 2012 20:08:51
Writing library                          : libebml v1.2.3 + libmatroska v1.3.0

Video
ID                                       : 1
Format                                   : AVC
Format/Info                              : Advanced Video Codec
Format profile                           : High@L4.1
Format settings, CABAC                   : Yes
Format settings, ReFrames                : 8 frames
Codec ID                                 : V_MPEG4/ISO/AVC
Duration                                 : 1h 35mn
Bit rate                                 : 2 700 Kbps
Width                                    : 1 280 pixels
Height                                   : 694 pixels
Display aspect ratio                     : 1.85:1
Frame rate mode                          : Constant
Frame rate                               : 23.976 fps
Color space                              : YUV
Chroma subsampling                       : 4:2:0
Bit depth                                : 8 bits
Scan type                                : Progressive
Bits/(Pixel*Frame)                       : 0.127
Stream size                              : 1.76 GiB (76%)
Title                                    : www.club-hd.com
Writing library                          : x264 core 125 r2200 999b753
Language                                 : English
Default                                  : Yes
Forced                                   : No

Audio #1
ID                                       : 2
Format                                   : AC-3
Format/Info                              : Audio Coding 3
Mode extension                           : CM (complete main)
Format settings, Endianness              : Big
Codec ID                                 : A_AC3
Duration                                 : 1h 35mn
Bit rate mode                            : Constant
Bit rate                                 : 320 Kbps
Channel(s)                               : 2 channels
Channel positions                        : Front: L R
Sampling rate                            : 44.1 KHz
Bit depth                                : 16 bits
Compression mode                         : Lossy
Stream size                              : 219 MiB (9%)
Title                                    : www.club-hd.com  >>  Latino
Language                                 : Spanish
Default                                  : Yes
Forced                                   : No

Audio #2
ID                                       : 3
Format                                   : AC-3
Format/Info                              : Audio Coding 3
Mode extension                           : CM (complete main)
Format settings, Endianness              : Big
Codec ID                                 : A_AC3
Duration                                 : 1h 35mn
Bit rate mode                            : Constant
Bit rate                                 : 448 Kbps
Channel(s)                               : 6 channels
Channel positions                        : Front: L C R, Side: L R, LFE
Sampling rate                            : 48.0 KHz
Bit depth                                : 16 bits
Compression mode                         : Lossy
Stream size                              : 306 MiB (13%)
Title                                    : www.club-hd.com  >>  Inglés
Language                                 : English
Default                                  : No
Forced                                   : No

Text #1
ID                                       : 4
Format                                   : UTF-8
Codec ID                                 : S_TEXT/UTF8
Codec ID/Info                            : UTF-8 Plain Text
Language                                 : Spanish
Default                                  : No
Forced                                   : No

Text #2
ID                                       : 5
Format                                   : UTF-8
Codec ID                                 : S_TEXT/UTF8
Codec ID/Info                            : UTF-8 Plain Text
Language                                 : English
Default                                  : No
Forced                                   : No

Menu
00:00:00.000                             : en:Illegal Channels
00:01:38.932                             : en:Main Titles
00:04:00.323                             : en:The Virgins
00:06:19.129                             : en:Stifler's Party
00:12:19.781                             : en:The Pale Ale
00:16:48.549                             : en:The Pact
00:24:08.238                             : en:A Father-Son Chat
00:27:53.755                             : en:The Bible
00:31:33.058                             : en:Just Like Pie...
00:35:52.442                             : en:By the Book
00:42:46.689                             : en:Nadia on the Net
01:00:11.399                             : en:Stifler's Revenge
01:03:41.359                             : en:Something More Important
01:07:41.724                             : en:I'm Gonna Have Sex!
01:11:02.383                             : en:The Prom
01:16:47.436                             : en:The Palace of Love
01:27:13.770                             : en:The Next Step
01:31:27.440                             : en:End Titles










Enlaces de Mega y Fireload solo disponibles para Miembros VIP

Compra tu Membresía VIP y apoya a Club-HD!

ATENCIÓN! Tenemos TODO el material de Club-HD disponible por Mega y Fireload, enlaces 100% activos y online hasta la fecha

Llévate tus cuentas Mega PRO II gratis con tu membresía VIP!
Todos los posts vivos con links de Mega y Fireload.
Todo el material de Club-HD desbloqueado y sin publicidad.

Click Aquí para más información.




Enlaces de Mega y Fireload solo disponibles para Miembros VIP

Compra tu Membresía VIP y apoya a Club-HD!

ATENCIÓN! Tenemos TODO el material de Club-HD disponible por Mega y Fireload, enlaces 100% activos y online hasta la fecha

Llévate tus cuentas Mega PRO II gratis con tu membresía VIP!
Todos los posts vivos con links de Mega y Fireload.
Todo el material de Club-HD desbloqueado y sin publicidad.

Click Aquí para más información.



Enlaces de Mega y Fireload solo disponibles para Miembros VIP

Compra tu Membresía VIP y apoya a Club-HD!

ATENCIÓN! Tenemos TODO el material de Club-HD disponible por Mega y Fireload, enlaces 100% activos y online hasta la fecha

Llévate tus cuentas Mega PRO II gratis con tu membresía VIP!
Todos los posts vivos con links de Mega y Fireload.
Todo el material de Club-HD desbloqueado y sin publicidad.

Click Aquí para más información.



Para ver este contenido oculto, debes dar click en una de las siguientes reacciones : Like Like, Love Love, Haha Haha, Wow Wow, Sad Sad, Angry Angry



Para ver este contenido oculto, debes dar click en una de las siguientes reacciones : Like Like, Love Love, Haha Haha, Wow Wow, Sad Sad, Angry Angry
 
Última edición:

Joker

Well-known member
Miembro del Staff
Súper Moderador
Registro
27 Ago 2012
Mensajes
1.349
Reacciones
3.759
Puntos
113
Ubicación
Arkham Asylum

Reputation:

Desc_g_

No me digan que van a subir toda la saga :OHHH:

Gracias!!!

Saludos :D
 

sunker-123

New member
Registro
27 Ago 2012
Mensajes
2.433
Reacciones
200
Puntos
0
Edad
30

Reputation:

Muchas Gracias R21...:dplgar: Ojala pudieras subir toda la saga...Tb_up3
 

Master_jfl

New member
Registro
27 Ago 2012
Mensajes
275
Reacciones
27
Puntos
0
Edad
33

Reputation:

excelente r21 espero que subas las que faltan, gracias
 

eljumachi

Well-known member
Miembro VIP
Registro
27 Ago 2012
Mensajes
2.174
Reacciones
338
Puntos
83

Reputation:

Estas comedias si me fascinan gracias R21 saludos y continué con la saga.
 

WarHammer

Member
Miembro VIP
Registro
28 Ago 2012
Mensajes
290
Reacciones
15
Puntos
18
Edad
36

Reputation:

Desc_g_ Sin pensansarlo 2 veces a la coleccion Pl4yb0y
 

juanbsmart

Member
Registro
20 Sep 2012
Mensajes
202
Reacciones
6
Puntos
18
Edad
39

Reputation:

espero que puedas subir todas las demas peliculas , son un clasico de comedia juvenil .
 

Joc

New member
Registro
27 Ago 2012
Mensajes
185
Reacciones
21
Puntos
0

Reputation:

:bsrs: Muchas gracias por este cómico aporte. Descargando
 

Usuarios Que Están Viendo Este Tema (Total: 1, Miembros: 0, Invitados: 1)

Arriba