American Pie 2 (2001) m-720p Dual Latino-Inglés [Subt. Esp-Ing] (Comedia)

Maestro Revolver

Well-known member
Miembro del Staff
Administrador
Registro
9 Ago 2012
Mensajes
3.569
Reacciones
59.350
Puntos
113

Reputation:









TÍTULO ORIGINAL: American Pie 2
AÑO: 2001
DURACIÓN: 104 min.
PAÍS: USA
DIRECTOR: J.B. Rogers
GUIÓN: Adam Herz (Argumento: David H. Steinberg & Adam Herz)
REPARTO: Jason Biggs, Seann William Scott, Chris Klein, Alyson Hannigan, Eddie Kaye Thomas, Thomas Ian Nicholas, Natasha Lyonne, Shannon Elizabeth, Tara Reid, Mena Suvari, Eugene Levy, Chris Owen, John Cho, Denise Faye, Lisa Arturo, Justin Isfeld, Casey Affleck, Jennifer Coolidge
PRODUCTORA: Universal Pictures
GÉNERO: Comedia | Adolescencia. Comedia juvenil. Secuela
: http://www.imdb.com/title/tt0252866/






Los protagonistas masculinos de la primera entrega, entonces obsesionados por perder la virginidad, se reencuentran en su pueblo natal tras su primer año en la universidad. Ha pasado un año, y Jim (Jason Biggs), Oz (Chris Klein), Kevin (Thomas Ian Nicholas) y Finch (Eddie Kay Thomas) deciden para pasar juntos el verano. Para poder tener independencia y perseguir mujeres, como tradicionalmente acostumbran, aunque sin éxito, deciden alquilar una casa en la playa. Como el alquiler es algo caro deciden invitar también a Stifler (Seann William Scott), quien además de tener mucho dinero, supuestamente sabe mucho de mujeres, aunque su personalidad es detestable.
























La pelicula NO tiene ninguna marca... solo colocamos el nombre de esta web en las capturas






Código:
General
Format                                   : Matroska
Format version                           : Version 2
File size                                : 2.90 GiB
Duration                                 : 1h 50mn
Overall bit rate                         : 3 750 Kbps
Movie name                               : www.club-hd.com
Encoded date                             : UTC 2013-01-07 00:15:32
Writing application                      : mkvmerge v5.7.0 ('The Whirlwind') built on Jul  8 2012 20:08:51
Writing library                          : libebml v1.2.3 + libmatroska v1.3.0

Video
ID                                       : 1
Format                                   : AVC
Format/Info                              : Advanced Video Codec
Format profile                           : High@L4.1
Format settings, CABAC                   : Yes
Format settings, ReFrames                : 8 frames
Codec ID                                 : V_MPEG4/ISO/AVC
Duration                                 : 1h 50mn
Bit rate                                 : 2 660 Kbps
Width                                    : 1 280 pixels
Height                                   : 694 pixels
Display aspect ratio                     : 1.85:1
Frame rate mode                          : Constant
Frame rate                               : 23.976 fps
Color space                              : YUV
Chroma subsampling                       : 4:2:0
Bit depth                                : 8 bits
Scan type                                : Progressive
Bits/(Pixel*Frame)                       : 0.125
Stream size                              : 2.00 GiB (69%)
Title                                    : www.club-hd.com
Writing library                          : x264 core 125 r2200 999b753
Language                                 : English
Default                                  : Yes
Forced                                   : No

Audio #1
ID                                       : 2
Format                                   : AC-3
Format/Info                              : Audio Coding 3
Mode extension                           : CM (complete main)
Format settings, Endianness              : Big
Codec ID                                 : A_AC3
Duration                                 : 1h 50mn
Bit rate mode                            : Constant
Bit rate                                 : 640 Kbps
Channel(s)                               : 6 channels
Channel positions                        : Front: L C R, Side: L R, LFE
Sampling rate                            : 48.0 KHz
Bit depth                                : 16 bits
Compression mode                         : Lossy
Delay relative to video                  : 24ms
Stream size                              : 507 MiB (17%)
Title                                    : www.club-hd.com  >>  Latino
Language                                 : Spanish
Default                                  : Yes
Forced                                   : No

Audio #2
ID                                       : 3
Format                                   : AC-3
Format/Info                              : Audio Coding 3
Mode extension                           : CM (complete main)
Format settings, Endianness              : Big
Codec ID                                 : A_AC3
Duration                                 : 1h 50mn
Bit rate mode                            : Constant
Bit rate                                 : 448 Kbps
Channel(s)                               : 6 channels
Channel positions                        : Front: L C R, Side: L R, LFE
Sampling rate                            : 48.0 KHz
Bit depth                                : 16 bits
Compression mode                         : Lossy
Stream size                              : 355 MiB (12%)
Title                                    : www.club-hd.com  >>  Inglés
Language                                 : English
Default                                  : No
Forced                                   : No

Text #1
ID                                       : 4
Format                                   : UTF-8
Codec ID                                 : S_TEXT/UTF8
Codec ID/Info                            : UTF-8 Plain Text
Language                                 : Spanish
Default                                  : No
Forced                                   : No

Text #2
ID                                       : 5
Format                                   : UTF-8
Codec ID                                 : S_TEXT/UTF8
Codec ID/Info                            : UTF-8 Plain Text
Language                                 : English
Default                                  : No
Forced                                   : No

Menu
00:00:00.000                             : en:Dad's Big Surprise
00:06:15.292                             : en:The One That Got Away
00:08:33.930                             : en:Back at Stifler's
00:15:53.661                             : en:Taste the Bubbles
00:20:22.012                             : en:A Call From Nadia
00:22:41.819                             : en:Moving to the Lake
00:27:22.224                             : en:Jim Joins the Band
00:34:31.278                             : en:Party Time
00:38:09.204                             : en:Just Friends
00:41:33.408                             : en:Phone Sex
00:44:11.107                             : en:The Big Broadcast
00:57:56.139                             : en:Love Lessons
01:05:34.305                             : en:Super Glue Blues
01:14:42.228                             : en:The Wrong Stifler
01:18:09.935                             : en:Jim's New Girlfriend
01:24:02.829                             : en:Things Are Different
01:28:26.301                             : en:I Am a Band Geek
01:36:27.448                             : en:A Very Special Boy
01:41:07.603                             : en:Hello, Jeannine
01:44:04.613                             : en:End Titles










Enlaces de Mega y Fireload solo disponibles para Miembros VIP

Compra tu Membresía VIP y apoya a Club-HD!

ATENCIÓN! Tenemos TODO el material de Club-HD disponible por Mega y Fireload, enlaces 100% activos y online hasta la fecha

Llévate tus cuentas Mega PRO II gratis con tu membresía VIP!
Todos los posts vivos con links de Mega y Fireload.
Todo el material de Club-HD desbloqueado y sin publicidad.

Click Aquí para más información.




Enlaces de Mega y Fireload solo disponibles para Miembros VIP

Compra tu Membresía VIP y apoya a Club-HD!

ATENCIÓN! Tenemos TODO el material de Club-HD disponible por Mega y Fireload, enlaces 100% activos y online hasta la fecha

Llévate tus cuentas Mega PRO II gratis con tu membresía VIP!
Todos los posts vivos con links de Mega y Fireload.
Todo el material de Club-HD desbloqueado y sin publicidad.

Click Aquí para más información.



Enlaces de Mega y Fireload solo disponibles para Miembros VIP

Compra tu Membresía VIP y apoya a Club-HD!

ATENCIÓN! Tenemos TODO el material de Club-HD disponible por Mega y Fireload, enlaces 100% activos y online hasta la fecha

Llévate tus cuentas Mega PRO II gratis con tu membresía VIP!
Todos los posts vivos con links de Mega y Fireload.
Todo el material de Club-HD desbloqueado y sin publicidad.

Click Aquí para más información.



Para ver este contenido oculto, debes dar click en una de las siguientes reacciones : Like Like, Love Love, Haha Haha, Wow Wow, Sad Sad, Angry Angry



Para ver este contenido oculto, debes dar click en una de las siguientes reacciones : Like Like, Love Love, Haha Haha, Wow Wow, Sad Sad, Angry Angry
 
Última edición:

Joker

Well-known member
Miembro del Staff
Súper Moderador
Registro
27 Ago 2012
Mensajes
1.349
Reacciones
3.762
Puntos
113
Ubicación
Arkham Asylum

Reputation:

Desc_g_

Aparentemente si vamos por toda la saga!! =O

Gracias!!!

Saludos :D
 

Joc

New member
Registro
27 Ago 2012
Mensajes
185
Reacciones
21
Puntos
0

Reputation:

De las mas chidas, como sugerencia ojala puedas postear las de scary movie, epica la primer pelicula de scary movie.

Muchas gracias por tremendo aporte
 

Usuarios Que Están Viendo Este Tema (Total: 1, Miembros: 0, Invitados: 1)

Arriba