American Psycho (2000) m-720p Audio Inglés [Subt. Esp] (Drama. Terror)

Maestro Revolver

Well-known member
Miembro del Staff
Administrador
Registro
9 Ago 2012
Mensajes
3.567








TÍTULO ORIGINAL: American Psycho
AÑO: 2000
DURACIÓN: 101 min.
PAÍS: USA
DIRECTOR: Mary Harron
GUIÓN: Mary Harron & Guinevere Turner (Novela: Bret Easton Ellis)
REPARTO: Christian Bale, Willem Dafoe, Jared Leto, Josh Lucas, Samantha Mathis, Matt Ross, William Sage (AKA Bill Sage), Chloë Sevigny, Cara Seymour, Guinevere Turner, Reese Witherspoon, Justin Theroux, Monika Meier
PRODUCTORA: Lions Gate
GÉNERO: Drama. Terror | Bolsa & Negocios. Drama psicológico. Años 80. Asesinos en serie. Película de culto
: http://www.imdb.com/title/tt0144084/






En un mundo moralmente plano en el que la ropa tiene más sentido que la piel, Patrick Bateman es un espécimen soberbiamente elaborado que cumple todos los requisitos de Master del Universo, desde el diseño de su vestuario hasta el de sus productos químicos. Es prácticamente perfecto, como casi todos en su mundo e intenta desesperadamente encajar en él. Cuando más intenta ser como cualquier otro hombre adinerado de Wall Street, más anónimo se vuelve y menos control tiene sobre sus terribles instintos y su insaciable sed de sangre, que lo arrastra a una vorágine en la que los objetos valen más que el cuerpo y el alma de una persona.
























La pelicula NO tiene ninguna marca... solo colocamos el nombre de esta web en las capturas






Código:
General
Format                                   : Matroska
Format version                           : Version 2
File size                                : 2.46 GiB
Duration                                 : 1h 42mn
Overall bit rate                         : 3 448 Kbps
Movie name                               : www.club-hd.com
Encoded date                             : UTC 2013-05-08 01:48:08
Writing application                      : mkvmerge v5.7.0 ('The Whirlwind') built on Jul  8 2012 20:08:51
Writing library                          : libebml v1.2.3 + libmatroska v1.3.0

Video
ID                                       : 1
Format                                   : AVC
Format/Info                              : Advanced Video Codec
Format profile                           : High@L4.1
Format settings, CABAC                   : Yes
Format settings, ReFrames                : 8 frames
Codec ID                                 : V_MPEG4/ISO/AVC
Duration                                 : 1h 42mn
Bit rate                                 : 3 000 Kbps
Width                                    : 1 280 pixels
Height                                   : 544 pixels
Display aspect ratio                     : 2.35:1
Frame rate mode                          : Constant
Frame rate                               : 23.976 fps
Color space                              : YUV
Chroma subsampling                       : 4:2:0
Bit depth                                : 8 bits
Scan type                                : Progressive
Bits/(Pixel*Frame)                       : 0.180
Stream size                              : 2.09 GiB (85%)
Title                                    : www.club-hd.com
Writing library                          : x264 core 120
Language                                 : English
Default                                  : Yes
Forced                                   : No
Color primaries                          : BT.709
Transfer characteristics                 : BT.709
Matrix coefficients                      : BT.709

Audio
ID                                       : 2
Format                                   : AC-3
Format/Info                              : Audio Coding 3
Mode extension                           : CM (complete main)
Format settings, Endianness              : Big
Codec ID                                 : A_AC3
Duration                                 : 1h 42mn
Bit rate mode                            : Constant
Bit rate                                 : 448 Kbps
Channel(s)                               : 6 channels
Channel positions                        : Front: L C R, Side: L R, LFE
Sampling rate                            : 48.0 KHz
Bit depth                                : 16 bits
Compression mode                         : Lossy
Stream size                              : 327 MiB (13%)
Title                                    : www.club-hd.com
Language                                 : English
Default                                  : Yes
Forced                                   : No

Text
ID                                       : 3
Format                                   : UTF-8
Codec ID                                 : S_TEXT/UTF8
Codec ID/Info                            : UTF-8 Plain Text
Language                                 : Spanish
Default                                  : Yes
Forced                                   : No








Enlaces de Mega y Google Drive solo disponibles para Miembros VIP

Compra tu Membresía VIP y apoya a Club-HD!

ATENCIÓN! Tenemos TODO el material de Club-HD disponible por Mega y Google Drive, enlaces 100% activos y online hasta la fecha

Llévate tus cuentas Mega PRO III gratis con tu membresía VIP!
Todos los posts vivos con links de Mega y Google Drive.
Todo el material de Club-HD desbloqueado y sin publicidad.

Click Aquí para más información.


Para ver este contenido oculto, debes dar click en una de las siguientes reacciones : Like Like, Love Love, Haha Haha, Wow Wow, Sad Sad, Angry Angry



 
Última edición por un moderador:

zacygal

Well-known member
Registro
3 Sep 2012
Mensajes
1.515
Edad
50
Esta pela es demasiado buena. ojala la subas en dual ...
 

sharklui

Well-known member
Miembro VIP
Registro
28 Ago 2012
Mensajes
1.026
Ubicación
The Matrix
:aplausos:

Que bien Revol, la estaba buscando, Muchas gracias, voy a darme una espera mientras desahogo la lista de descargas que no da a basto contigo llenandonos con tantos imperdibles :D, a ver si depronto la consigues en Latino Tb_up3.

:aplausos:
 

Usuarios Que Están Viendo Este Tema (Total: 1, Miembros: 0, Invitados: 1)

Quién Leyó Este Tema (Total Miembros: 2)

Arriba