American Reunion (2012) UNRATED m-720p Dual Latino-Ingles [Subt. Esp-Ing] (Comedia)

Maestro Revolver

Well-known member
Miembro del Staff
Administrador
Registro
9 Ago 2012
Mensajes
3.569
Reacciones
59.346
Puntos
113

Reputation:









TÍTULO ORIGINAL: American Reunion
AÑO: 2012
DURACIÓN: 1h 53mn
PAÍS: USA
DIRECTOR: Jon Hurwitz, Hayden Schlossberg
GUIÓN: Jon Hurwitz, Hayden Schlossberg (Personajes: Adam Herz)
REPARTO: Jason Biggs, Alyson Hannigan, Seann William Scott, Tara Reid, Mena Suvari, Chris Klein, Thomas Ian Nicholas, Jennifer Coolidge, Natasha Lyonne, Shannon Elizabeth, Eugene Levy, Tad Hilgenbrink, Eddie Kaye Thomas, Chris Owen, Molly Cheek, Dania Ramírez, Katrina Bowden, Rebecca De Mornay
PRODUCTORA: Universal Pictures
GÉNERO: Comedia | Comedia juvenil. Secuela






Un grupo de viejos amigos vuelven a reunirse. Jim (Jason Biggs) y Michelle (Alyson Hannigan) siguen felizmente casados, aunque hay una vecina que se ha enamorado de él. Además, la cinta sexual con Nadia se ha convertido en uno de los videos más vistos de Youtube. Por su parte, Oz (Chris Klein) vive en una mansión de Malibú, pero su novia parece sólo interesada por su dinero. Mientras tanto, la vida de Stifler (Seann William Scott) sigue siendo un desastre. Heather (Mena Suvari) sale con un cirujano que intenta parecer más joven, y Finch (Eddie Kaye Thomas), que ha viajado por el mundo, intenta ligar con Trish, una camarera amiga de Michelle.
























La pelicula tiene una marca al final en los creditos "www.club-hd.com"





Código:
General
Format                                   : Matroska
Format version                           : Version 2
File size                                : 2.96 GiB
Duration                                 : 1h 53mn
Overall bit rate                         : 3 723 Kbps
Movie name                               : www.club-hd.com
Encoded date                             : UTC 2012-09-16 02:22:40
Writing application                      : mkvmerge v3.4.0 ('Rapunzel') built on May 15 2010 09:38:20
Writing library                          : libebml v0.8.0 + libmatroska v0.9.0

Video
ID                                       : 1
Format                                   : AVC
Format/Info                              : Advanced Video Codec
Format profile                           : High@L4.1
Format settings, CABAC                   : Yes
Format settings, ReFrames                : 8 frames
Codec ID                                 : V_MPEG4/ISO/AVC
Duration                                 : 1h 53mn
Bit rate                                 : 2 700 Kbps
Width                                    : 1 280 pixels
Height                                   : 694 pixels
Display aspect ratio                     : 1.85:1
Frame rate mode                          : Constant
Frame rate                               : 23.976 fps
Color space                              : YUV
Chroma subsampling                       : 4:2:0
Bit depth                                : 8 bits
Scan type                                : Progressive
Bits/(Pixel*Frame)                       : 0.127
Stream size                              : 2.09 GiB (71%)
Title                                    : www.club-hd.com
Writing library                          : x264 core 125 r2200 999b753
Language                                 : English
Default                                  : Yes
Forced                                   : No

Audio #1
ID                                       : 2
Format                                   : AC-3
Format/Info                              : Audio Coding 3
Mode extension                           : CM (complete main)
Format settings, Endianness              : Big
Codec ID                                 : A_AC3
Duration                                 : 1h 53mn
Bit rate mode                            : Constant
Bit rate                                 : 384 Kbps
Channel(s)                               : 6 channels
Channel positions                        : Front: L C R, Side: L R, LFE
Sampling rate                            : 48.0 KHz
Bit depth                                : 16 bits
Compression mode                         : Lossy
Stream size                              : 313 MiB (10%)
Title                                    : www.club-hd.com  >>  Latino
Language                                 : Spanish
Default                                  : Yes
Forced                                   : No

Audio #2
ID                                       : 3
Format                                   : AC-3
Format/Info                              : Audio Coding 3
Mode extension                           : CM (complete main)
Format settings, Endianness              : Big
Codec ID                                 : A_AC3
Duration                                 : 1h 53mn
Bit rate mode                            : Constant
Bit rate                                 : 640 Kbps
Channel(s)                               : 6 channels
Channel positions                        : Front: L C R, Side: L R, LFE
Sampling rate                            : 48.0 KHz
Bit depth                                : 16 bits
Compression mode                         : Lossy
Stream size                              : 521 MiB (17%)
Title                                    : www.club-hd.com  >>  Ingles
Language                                 : English
Default                                  : No
Forced                                   : No

Text #1
ID                                       : 4
Format                                   : UTF-8
Codec ID                                 : S_TEXT/UTF8
Codec ID/Info                            : UTF-8 Plain Text
Title                                    : Forzados
Language                                 : Spanish
Default                                  : Yes
Forced                                   : No

Text #2
ID                                       : 5
Format                                   : UTF-8
Codec ID                                 : S_TEXT/UTF8
Codec ID/Info                            : UTF-8 Plain Text
Language                                 : Spanish
Default                                  : No
Forced                                   : No

Text #3
ID                                       : 6
Format                                   : UTF-8
Codec ID                                 : S_TEXT/UTF8
Codec ID/Info                            : UTF-8 Plain Text
Language                                 : English
Default                                  : No
Forced                                   : No

Menu
00:00:00.000                             : en:Chapter 01
00:04:48.746                             : en:Chapter 02
00:08:58.287                             : en:Chapter 03
00:14:26.240                             : en:Chapter 04
00:18:52.172                             : en:Chapter 05
00:23:37.624                             : en:Chapter 06
00:27:29.147                             : en:Chapter 07
00:32:01.627                             : en:Chapter 08
00:40:35.849                             : en:Chapter 09
00:45:55.127                             : en:Chapter 10
00:52:51.334                             : en:Chapter 11
00:59:54.757                             : en:Chapter 12
01:06:20.559                             : en:Chapter 13
01:10:36.023                             : en:Chapter 14
01:14:37.597                             : en:Chapter 15
01:23:35.968                             : en:Chapter 16
01:28:30.304                             : en:Chapter 17
01:36:36.456                             : en:Chapter 18
01:43:10.642                             : en:Chapter 19
01:49:15.173                             : en:Chapter 20











Enlaces de Mega y Fireload solo disponibles para Miembros VIP

Compra tu Membresía VIP y apoya a Club-HD!

ATENCIÓN! Tenemos TODO el material de Club-HD disponible por Mega y Fireload, enlaces 100% activos y online hasta la fecha

Llévate tus cuentas Mega PRO II gratis con tu membresía VIP!
Todos los posts vivos con links de Mega y Fireload.
Todo el material de Club-HD desbloqueado y sin publicidad.

Click Aquí para más información.



Enlaces de Mega y Fireload solo disponibles para Miembros VIP

Compra tu Membresía VIP y apoya a Club-HD!

ATENCIÓN! Tenemos TODO el material de Club-HD disponible por Mega y Fireload, enlaces 100% activos y online hasta la fecha

Llévate tus cuentas Mega PRO II gratis con tu membresía VIP!
Todos los posts vivos con links de Mega y Fireload.
Todo el material de Club-HD desbloqueado y sin publicidad.

Click Aquí para más información.



Enlaces de Mega y Fireload solo disponibles para Miembros VIP

Compra tu Membresía VIP y apoya a Club-HD!

ATENCIÓN! Tenemos TODO el material de Club-HD disponible por Mega y Fireload, enlaces 100% activos y online hasta la fecha

Llévate tus cuentas Mega PRO II gratis con tu membresía VIP!
Todos los posts vivos con links de Mega y Fireload.
Todo el material de Club-HD desbloqueado y sin publicidad.

Click Aquí para más información.



Para ver este contenido oculto, debes dar click en una de las siguientes reacciones : Like Like, Love Love, Haha Haha, Wow Wow, Sad Sad, Angry Angry
 
Última edición:

Omar Herrera

Well-known member
Miembro del Staff
Súper Moderador
Registro
27 Ago 2012
Mensajes
1.234
Reacciones
325
Puntos
83
Edad
32
Ubicación
Managua

Reputation:

:crcjd: con esta si me rei a revenatar! Gracias Revolver!!!
espero que postees la saga pronto amigo! Saludos
 

VincentVega

New member
Registro
27 Ago 2012
Mensajes
404
Reacciones
162
Puntos
0
Edad
32
Ubicación
Valinor

Reputation:

De vuelta a los orígenes por suerte. Omitiendo lo malas que fueron la 4,5,6 y 7!
 

ESMUCHI

New member
Registro
30 Ago 2012
Mensajes
27
Reacciones
0
Puntos
0

Reputation:

Gracias, muy buena la pelicula!!!!

Muchas gracias por la pelicula, muy buena, descargandooo..
 

Usuarios Que Están Viendo Este Tema (Total: 1, Miembros: 0, Invitados: 1)

Arriba