American Wedding (2003) m-720p Dual Latino-Inglés [Subt. Esp-Ing] (Comedia)

Maestro Revolver

Well-known member
Miembro del Staff
Administrador
Registro
9 Ago 2012
Mensajes
3.569
Reacciones
59.341
Puntos
113

Reputation:









TÍTULO ORIGINAL: American Wedding (AKA American Pie: The Wedding)
AÑO: 2003
DURACIÓN: 102 min.
PAÍS: USA
DIRECTOR: Jesse Dylan
GUIÓN: Adam Herz (Personajes: Adam Herz)
REPARTO: Jason Biggs, Seann William Scott, Alyson Hannigan, Eddie Kaye Thomas, Thomas Ian Nicholas, January Jones, Eugene Levy, Fred Willard, Molly Cheek, Deborah Rush, Angela Paton, Eric Allan Kramer, Amanda Swisten, Nikki Ziering, John Cho, Justin Isfeld, Jennifer Coolidge
PRODUCTORA: Universal
GÉNERO: Comedia | Adolescencia. Comedia juvenil. Secuela. Bodas
: http://www.imdb.com/title/tt0328828/






Los años han pasado desde que vimos por última vez al grupo de East Great Falls High. Ahora Jim y Michelle están a punto de casarse, y antes de la boda se tiene que organizar la despedida de soltero, que corre a cargo, como no, de Stifler. Para que sea perfecta, intentarán reunir de nuevo al grupo.
























La pelicula NO tiene ninguna marca... solo colocamos el nombre de esta web en las capturas






Código:
General
Format                                   : Matroska
Format version                           : Version 2
File size                                : 2.66 GiB
Duration                                 : 1h 43mn
Overall bit rate                         : 3 687 Kbps
Movie name                               : www.club-hd.com
Encoded date                             : UTC 2013-01-07 00:58:05
Writing application                      : mkvmerge v5.7.0 ('The Whirlwind') built on Jul  8 2012 20:08:51
Writing library                          : libebml v1.2.3 + libmatroska v1.3.0

Video
ID                                       : 1
Format                                   : AVC
Format/Info                              : Advanced Video Codec
Format profile                           : High@L4.1
Format settings, CABAC                   : Yes
Format settings, ReFrames                : 8 frames
Codec ID                                 : V_MPEG4/ISO/AVC
Duration                                 : 1h 43mn
Bit rate                                 : 2 600 Kbps
Width                                    : 1 280 pixels
Height                                   : 542 pixels
Display aspect ratio                     : 2.35:1
Frame rate mode                          : Constant
Frame rate                               : 23.976 fps
Color space                              : YUV
Chroma subsampling                       : 4:2:0
Bit depth                                : 8 bits
Scan type                                : Progressive
Bits/(Pixel*Frame)                       : 0.156
Stream size                              : 1.82 GiB (68%)
Title                                    : www.club-hd.com
Writing library                          : x264 core 125 r2200 999b753
Language                                 : English
Default                                  : Yes
Forced                                   : No

Audio #1
ID                                       : 2
Format                                   : AC-3
Format/Info                              : Audio Coding 3
Mode extension                           : CM (complete main)
Format settings, Endianness              : Big
Codec ID                                 : A_AC3
Duration                                 : 1h 43mn
Bit rate mode                            : Constant
Bit rate                                 : 640 Kbps
Channel(s)                               : 6 channels
Channel positions                        : Front: L C R, Side: L R, LFE
Sampling rate                            : 48.0 KHz
Bit depth                                : 16 bits
Compression mode                         : Lossy
Stream size                              : 473 MiB (17%)
Title                                    : www.club-hd.com  >>  Latino
Language                                 : Spanish
Default                                  : Yes
Forced                                   : No

Audio #2
ID                                       : 3
Format                                   : AC-3
Format/Info                              : Audio Coding 3
Mode extension                           : CM (complete main)
Format settings, Endianness              : Big
Codec ID                                 : A_AC3
Duration                                 : 1h 43mn
Bit rate mode                            : Constant
Bit rate                                 : 448 Kbps
Channel(s)                               : 6 channels
Channel positions                        : Front: L C R, Side: L R, LFE
Sampling rate                            : 48.0 KHz
Bit depth                                : 16 bits
Compression mode                         : Lossy
Stream size                              : 331 MiB (12%)
Title                                    : www.club-hd.com  >>  Inglés
Language                                 : English
Default                                  : No
Forced                                   : No

Text #1
ID                                       : 4
Format                                   : UTF-8
Codec ID                                 : S_TEXT/UTF8
Codec ID/Info                            : UTF-8 Plain Text
Language                                 : Spanish
Default                                  : No
Forced                                   : No

Text #2
ID                                       : 5
Format                                   : UTF-8
Codec ID                                 : S_TEXT/UTF8
Codec ID/Info                            : UTF-8 Plain Text
Language                                 : English
Default                                  : No
Forced                                   : No

Menu
00:00:00.000                             : en:Popping the Question
00:07:26.196                             : en:The Engagement Party
00:13:59.630                             : en:Wedding Recon
00:16:41.375                             : en:Not Invited
00:20:30.521                             : en:A Dress in Chicago
00:21:46.013                             : en:Looking for Leslie
00:25:01.333                             : en:Stifler's Moves
00:29:55.711                             : en:Cadence
00:33:16.828                             : en:Good Friend Steven
00:38:38.608                             : en:The Finchmeister
00:41:18.976                             : en:Fatherly Advice
00:42:41.767                             : en:The Bachelor Party
00:59:03.415                             : en:Heading for a Wedding
01:02:57.232                             : en:A Hairy Incident
01:04:56.142                             : en:Going to the Dogs
01:08:15.883                             : en:Fresh Chocolate
01:11:03.384                             : en:Grandma and the Goya
01:13:10.678                             : en:Plans With Cadence
01:15:59.096                             : en:The Flower Killer
01:19:02.362                             : en:Stifler's Score
01:23:32.716                             : en:Pre-Wedding Priorities
01:27:11.434                             : en:Love Is...
01:29:22.148                             : en:Where's Grandma?
01:30:30.133                             : en:Husband and Wife
01:33:27.602                             : en:The Wedding Dance
01:36:12.350                             : en:Perfectly Natural
01:37:19.959                             : en:The Master
01:38:10.843                             : en:End Titles










Enlaces de Mega y Fireload solo disponibles para Miembros VIP

Compra tu Membresía VIP y apoya a Club-HD!

ATENCIÓN! Tenemos TODO el material de Club-HD disponible por Mega y Fireload, enlaces 100% activos y online hasta la fecha

Llévate tus cuentas Mega PRO II gratis con tu membresía VIP!
Todos los posts vivos con links de Mega y Fireload.
Todo el material de Club-HD desbloqueado y sin publicidad.

Click Aquí para más información.




Enlaces de Mega y Fireload solo disponibles para Miembros VIP

Compra tu Membresía VIP y apoya a Club-HD!

ATENCIÓN! Tenemos TODO el material de Club-HD disponible por Mega y Fireload, enlaces 100% activos y online hasta la fecha

Llévate tus cuentas Mega PRO II gratis con tu membresía VIP!
Todos los posts vivos con links de Mega y Fireload.
Todo el material de Club-HD desbloqueado y sin publicidad.

Click Aquí para más información.



Enlaces de Mega y Fireload solo disponibles para Miembros VIP

Compra tu Membresía VIP y apoya a Club-HD!

ATENCIÓN! Tenemos TODO el material de Club-HD disponible por Mega y Fireload, enlaces 100% activos y online hasta la fecha

Llévate tus cuentas Mega PRO II gratis con tu membresía VIP!
Todos los posts vivos con links de Mega y Fireload.
Todo el material de Club-HD desbloqueado y sin publicidad.

Click Aquí para más información.



Para ver este contenido oculto, debes dar click en una de las siguientes reacciones : Like Like, Love Love, Haha Haha, Wow Wow, Sad Sad, Angry Angry
 
Última edición:

Joker

Well-known member
Miembro del Staff
Súper Moderador
Registro
27 Ago 2012
Mensajes
1.349
Reacciones
3.759
Puntos
113
Ubicación
Arkham Asylum

Reputation:

Desc_g_

Añadida a la lista de descargas =P

Gracias!!!

Saludos :D
 

Karpetdiem

Member
Registro
2 Sep 2012
Mensajes
469
Reacciones
14
Puntos
18
Edad
33
Ubicación
Pergamino

Reputation:

Excelente, gracias! A alguien le funciona Letitbit? No puedo ingresar a la página, ni bajar con o sin premium
 

Usuarios Que Están Viendo Este Tema (Total: 1, Miembros: 0, Invitados: 1)

Arriba