An Officer and a Gentleman (1982) 720p BDRip Dual Latino-Inglés [Subt. Esp] (Romance. Drama)

Maestro Revolver

Well-known member
Miembro del Staff
Administrador
Registro
9 Ago 2012
Mensajes
3.567








TÍTULO ORIGINAL: An Officer and a Gentleman
AÑO: 1982
DURACIÓN: 125 min.
PAÍS: USA
DIRECTOR: Taylor Hackford
GUIÓN: Douglas Day Stewart
REPARTO: Richard Gere, Debra Winger, Louis Gossett Jr., David Caruso, David Keith, Robert Loggia, Lisa Blount, Lisa Eilbacher, Victor French, Tony Plana, Grace Zabriskie
PRODUCTORA: Lorimar Film Entertainment
GÉNERO: Romance. Drama | Drama romántico. Ejército. Amistad
: http://www.imdb.com/title/tt0084434/


Premios: 1982: 2 Oscars: Mejor actor secundario (Louis Gossett Jr.), canción. 6 nominaciones






Zack Mayo (Richard Gere), un joven que ingresa en la Escuela Naval Militar de los Estados Unidos, tropezará con muchas dificultades para adaptarse a la estricta disciplina militar, situación que intentará corregir el implacable sargento Foley (Louis Gossett Jr.). Mientras tanto, conoce a Paula (Debra Winger), una joven de la que se acaba enamorando.
























La pelicula NO tiene ninguna marca... solo colocamos el nombre de esta web en las capturas






Código:
General
Format                                   : Matroska
Format version                           : Version 2
File size                                : 4.71 GiB
Duration                                 : 2h 4mn
Overall bit rate                         : 5 426 Kbps
Movie name                               : www.club-hd.com
Encoded date                             : UTC 2013-06-06 22:20:09
Writing application                      : mkvmerge v5.7.0 ('The Whirlwind') built on Jul  8 2012 20:08:51
Writing library                          : libebml v1.2.3 + libmatroska v1.3.0

Video
ID                                       : 1
Format                                   : AVC
Format/Info                              : Advanced Video Codec
Format profile                           : High@L4.1
Format settings, CABAC                   : Yes
Format settings, ReFrames                : 5 frames
Codec ID                                 : V_MPEG4/ISO/AVC
Duration                                 : 2h 4mn
Bit rate                                 : 4 784 Kbps
Width                                    : 1 280 pixels
Height                                   : 720 pixels
Display aspect ratio                     : 16:9
Frame rate mode                          : Constant
Frame rate                               : 23.976 fps
Color space                              : YUV
Chroma subsampling                       : 4:2:0
Bit depth                                : 8 bits
Scan type                                : Progressive
Bits/(Pixel*Frame)                       : 0.217
Stream size                              : 4.06 GiB (86%)
Title                                    : www.club-hd.com
Writing library                          : x264 core 130 r2273 b3065e6
Language                                 : English
Default                                  : Yes
Forced                                   : No

Audio #1
ID                                       : 2
Format                                   : AC-3
Format/Info                              : Audio Coding 3
Mode extension                           : CM (complete main)
Format settings, Endianness              : Big
Codec ID                                 : A_AC3
Duration                                 : 2h 4mn
Bit rate mode                            : Constant
Bit rate                                 : 192 Kbps
Channel(s)                               : 2 channels
Channel positions                        : Front: L R
Sampling rate                            : 48.0 KHz
Bit depth                                : 16 bits
Compression mode                         : Lossy
Stream size                              : 171 MiB (4%)
Title                                    : www.club-hd.com  >>  Latino
Language                                 : Spanish
Default                                  : Yes
Forced                                   : No

Audio #2
ID                                       : 3
Format                                   : AC-3
Format/Info                              : Audio Coding 3
Mode extension                           : CM (complete main)
Format settings, Endianness              : Big
Codec ID                                 : A_AC3
Duration                                 : 2h 4mn
Bit rate mode                            : Constant
Bit rate                                 : 448 Kbps
Channel(s)                               : 6 channels
Channel positions                        : Front: L C R, Side: L R, LFE
Sampling rate                            : 48.0 KHz
Bit depth                                : 16 bits
Compression mode                         : Lossy
Stream size                              : 398 MiB (8%)
Title                                    : www.club-hd.com  >>  Inglés
Language                                 : English
Default                                  : No
Forced                                   : No

Text
ID                                       : 4
Format                                   : UTF-8
Codec ID                                 : S_TEXT/UTF8
Codec ID/Info                            : UTF-8 Plain Text
Language                                 : Spanish
Default                                  : No
Forced                                   : No

Menu
00:00:00.000                             : en:00:00:00.000
00:09:02.834                             : en:00:09:02.834
00:15:52.827                             : en:00:15:52.827
00:21:16.609                             : en:00:21:16.609
00:29:43.323                             : en:00:29:43.323
00:38:30.683                             : en:00:38:30.683
00:50:01.040                             : en:00:50:01.040
00:56:13.328                             : en:00:56:13.328
01:05:25.463                             : en:01:05:25.463
01:17:04.161                             : en:01:17:04.161
01:28:16.333                             : en:01:28:16.333
01:30:51.154                             : en:01:30:51.154
01:48:32.798                             : en:01:48:32.798
01:54:56.556                             : en:01:54:56.556
01:59:42.759                             : en:01:59:42.759




Nuevos links







Enlaces de Mega y Google Drive solo disponibles para Miembros VIP

Compra tu Membresía VIP y apoya a Club-HD!

ATENCIÓN! Tenemos TODO el material de Club-HD disponible por Mega y Google Drive, enlaces 100% activos y online hasta la fecha

Llévate tus cuentas Mega PRO III gratis con tu membresía VIP!
Todos los posts vivos con links de Mega y Google Drive.
Todo el material de Club-HD desbloqueado y sin publicidad.

Click Aquí para más información.


Para ver este contenido oculto, debes dar click en una de las siguientes reacciones : Like Like, Love Love, Haha Haha, Wow Wow, Sad Sad, Angry Angry

 
Última edición por un moderador:

sharklui

Well-known member
Miembro VIP
Registro
28 Ago 2012
Mensajes
1.026
Ubicación
The Matrix
Muchas gracias Revol, aunque no la conozco, Richard Gere es muy buen actor y vale la pena verla, teniendo como referencia Hachiko y por supuesto infidelidad (Que aunque no es el lugar para decirlo espero ojala verla por aqui en algun momento de la mano del Gran Revol), sin mas palabras inicia la descarga :bsrs:
 

Nosferatu

Well-known member
Miembro del Staff
Súper Moderador
Miembro VIP
Registro
31 Ago 2012
Mensajes
2.275
Edad
45
Ubicación
Welcome to Hell!!
Muchas Gracias por este excelente clásico.:aplausos::aplausos::aplausos:

jjajaja. Mi madre esta enamorada de Richard Gere y esta película le encanta.:aplausos::aplausos:

Muchas gracias monstruo R22!!!:LXR::LXR::LXR:
 

Usuarios Que Están Viendo Este Tema (Total: 1, Miembros: 0, Invitados: 1)

Quién Leyó Este Tema (Total Miembros: 3)

Arriba