Apocalypse Now (1979) Redux REMASTERED 1080p BDRip Castellano-Inglés [Subt. Esp] (Bélico. Drama)

Dante Inferno

🔥Dante Inferno🔥
Miembro del Staff
Moderador
Uploader
Miembro VIP
Registro
24 May 2016
Mensajes
753
Ubicación
Argentina

[prebreak][/prebreak]

Otro títulos: Apocalipsis ahora | Apocalipsis now


SINOPSIS

Durante la guerra de Vietnam, al joven Capitán Willard, un oficial de los servicios de inteligencia del ejército estadounidense, se le ha encomendado entrar en Camboya con la peligrosa misión de eliminar a Kurtz, un coronel renegado que se ha vuelto loco. El capitán deberá ir navegar por el río hasta el corazón de la selva, donde parece ser que Kurtz reina como un buda despótico sobre los miembros de la tribu Montagnard, que le adoran como a un dios.

MÁS INFORMACIÓN




TRAILER



CAPTURAS









Las capturas están optimizadas, por lo tanto el video es la verdadera calidad.


MEDIAINFO

General
Complete name : Apocalypse Now (1979) Redux REMASTERED 1080p BDRip Castellano-Inglés [Subt. Esp].mkv
Format : Matroska
Format version : Version 4
File size : 18.1 GiB
Duration : 3 h 16 min
Overall bit rate : 13.2 Mb/s
Movie name : Apocalypse Now (1979) Redux REMASTERED 1080p BDRip Castellano-Inglés [Subt. Esp] [www.club-hd.com]
Encoded date : UTC 2022-11-14 13:27:20
Writing application : mkvmerge v70.0.0 ('Caught A Lite Sneeze') 64-bit
Writing library : libebml v1.4.2 + libmatroska v1.6.4

Video
ID : 1
Format : AVC
Format/Info : Advanced Video Codec
Format profile : High@L4.1
Format settings : CABAC / 5 Ref Frames
Format settings, CABAC : Yes
Format settings, Reference frames : 5 frames
Codec ID : V_MPEG4/ISO/AVC
Duration : 3 h 16 min
Bit rate : 12.1 Mb/s
Width : 1 920 pixels
Height : 800 pixels
Display aspect ratio : 2.40:1
Frame rate mode : Constant
Frame rate : 23.976 (24000/1001) FPS
Color space : YUV
Chroma subsampling : 4:2:0
Bit depth : 8 bits
Scan type : Progressive
Bits/(Pixel*Frame) : 0.329
Stream size : 16.6 GiB (92%)
Title : Apocalypse Now (1979) Redux REMASTERED 1080p BDRip Castellano-Inglés [Subt. Esp]
Writing library : x264 core 157 r2969 d4099dd
Language : English
Default : Yes
Forced : No

Audio #1
ID : 2
Format : AC-3
Format/Info : Audio Coding 3
Commercial name : Dolby Digital
Codec ID : A_AC3
Duration : 3 h 16 min
Bit rate mode : Constant
Bit rate : 448 kb/s
Channel(s) : 6 channels
Channel layout : L R C LFE Ls Rs
Sampling rate : 48.0 kHz
Frame rate : 31.250 FPS (1536 SPF)
Compression mode : Lossy
Stream size : 628 MiB (3%)
Title : Castellano
Language : Spanish
Service kind : Complete Main
Default : Yes
Forced : No

Audio #2
ID : 3
Format : AC-3
Format/Info : Audio Coding 3
Commercial name : Dolby Digital
Codec ID : A_AC3
Duration : 3 h 16 min
Bit rate mode : Constant
Bit rate : 640 kb/s
Channel(s) : 6 channels
Channel layout : L R C LFE Ls Rs
Sampling rate : 48.0 kHz
Frame rate : 31.250 FPS (1536 SPF)
Compression mode : Lossy
Stream size : 898 MiB (5%)
Title : Inglés
Language : English
Service kind : Complete Main
Default : No
Forced : No

Text
ID : 4
Format : UTF-8
Codec ID : S_TEXT/UTF8
Codec ID/Info : UTF-8 Plain Text
Duration : 3 h 14 min
Bit rate : 55 b/s
Frame rate : 0.181 FPS
Count of elements : 2105
Stream size : 78.8 KiB (0%)
Title : Subtítulos Español
Language : Spanish
Default : No
Forced : No

Menu
00:00:00.000 : en:Chapter 01
00:09:23.480 : en:Chapter 02
00:20:22.638 : en:Chapter 03
00:24:09.073 : en:Chapter 04
00:31:13.330 : en:Chapter 05
00:34:09.589 : en:Chapter 06
00:45:01.240 : en:Chapter 07
00:52:03.871 : en:Chapter 08
01:03:25.969 : en:Chapter 09
01:17:08.958 : en:Chapter 10
01:34:17.110 : en:Chapter 11
01:39:35.970 : en:Chapter 12
01:49:19.803 : en:Chapter 13
01:55:03.438 : en:Chapter 14
02:27:39.309 : en:Chapter 15
02:36:23.874 : en:Chapter 16
02:45:17.866 : en:Chapter 17
03:03:08.769 : en:Chapter 18
03:10:09.731 : en:Chapter 19


En 2001, el director lanzó esta versión, con 49 minutos más que la original, una odisea de tres horas diecisiete minutos
Casi de más está decir que Apocalypse Now Redux es de visión imprescindible no sólo para aquellos que nunca vieron la película, o sólo vieron su versión original, sino también para los espectadores que recuerdan el impacto que producía Apocalypse Now en la sagrada oscuridad del cine.



CONTRASEÑA



DESCARGAR



Enlaces de Mega y Google Drive solo disponibles para Miembros VIP

Compra tu Membresía VIP y apoya a Club-HD!

ATENCIÓN! Tenemos TODO el material de Club-HD disponible por Mega y Google Drive, enlaces 100% activos y online hasta la fecha

Llévate tus cuentas Mega PRO III gratis con tu membresía VIP!
Todos los posts vivos con links de Mega y Google Drive.
Todo el material de Club-HD desbloqueado y sin publicidad.

Click Aquí para más información.



Para ver este contenido oculto, debes dar click en una de las siguientes reacciones : Like Like, Love Love, Haha Haha, Wow Wow, Sad Sad, Angry Angry



Para ver este contenido oculto, debes dar click en una de las siguientes reacciones : Like Like, Love Love, Haha Haha, Wow Wow, Sad Sad, Angry Angry
 

Usuarios Que Están Viendo Este Tema (Total: 1, Miembros: 0, Invitados: 1)

Arriba