• Este aviso va dirigido a todos los nuevos miembros recien llegados a Club-HD. Les recordamos que la direccion URL de este sitio web es , asi que deben acceder únicamente por esta URL. Sean todos bienvenidos al Club!

Aquaman (2018) IMAX 1080p BDRip HEVC Dual Latino-Inglés [Subt. Esp] (Fantástico. Acción)

Bebesaurio

Novio de Vizard
Miembro del Staff
Moderador
Uploader
Registrado
12 Mar 2018
Mensajes
597
Puntos de reacción
14,555
Puntos
93
Edad
21







★ SINOPSIS ★

Sinopsis: Cuando Arthur Curry (Jason Momoa) descubre que es mitad humano y mitad atlante, emprenderá el viaje de su vida en esta aventura que no sólo le obligará a enfrentarse a quién es en realidad, sino también a descubrir si es digno de cumplir con su destino: ser rey, y convertirse en Aquaman.






★ CAPTURAS ★











★ MEDIAINFO ★

Código:
Unique ID                                : 100532607895530913153927915660144658832 (0x4BA1E04119629B71832298CA95D5C990)
Format                                   : Matroska
Format version                           : Version 4
File size                                : 4.47 GiB
Duration                                 : 2 h 23 min
Overall bit rate                         : 4 466 kb/s
Encoded date                             : UTC 2019-03-22 18:31:56 / UTC 2019-03-19T01:45:24Z
Writing application                      : mkvmerge v27.0.0 ('Metropolis') 64-bit
Writing library                          : libebml v1.3.6 + libmatroska v1.4.9 / Lavf57.7.2

Video
ID                                       : 1
Format                                   : HEVC
Format/Info                              : High Efficiency Video Coding
Format profile                           : Main 10@L5.1@High
Codec ID                                 : V_MPEGH/ISO/HEVC
Duration                                 : 2 h 23 min
Bit rate                                 : 3 568 kb/s
Width                                    : 1 920 pixels
Height                                   : 1 080 pixels
Display aspect ratio                     : 16:9
Frame rate mode                          : Constant
Frame rate                               : 23.976 (24000/1001) FPS
Color space                              : YUV
Chroma subsampling                       : 4:2:0
Bit depth                                : 10 bits
Bits/(Pixel*Frame)                       : 0.072
Stream size                              : 3.57 GiB (80%)
Writing library                          : x265 2.6:[Windows][GCC 7.3.0][64 bit] 10bit
Encoding settings                        : cpuid=1050111 / frame-threads=3 / numa-pools=8 / wpp / no-pmode / no-pme / no-psnr / no-ssim / log-level=2 / input-csp=1 / input-res=1920x1080 / interlace=0 / total-frames=0 / level-idc=51 / high-tier=1 / uhd-bd=0 / ref=4 / no-allow-non-conformance / no-repeat-headers / annexb / no-aud / no-hrd / info / hash=0 / no-temporal-layers / open-gop / min-keyint=24 / keyint=240 / bframes=4 / b-adapt=2 / b-pyramid / bframe-bias=0 / rc-lookahead=25 / lookahead-slices=4 / scenecut=40 / no-intra-refresh / ctu=64 / min-cu-size=8 / rect / no-amp / max-tu-size=32 / tu-inter-depth=1 / tu-intra-depth=1 / limit-tu=0 / rdoq-level=2 / dynamic-rd=0.00 / no-ssim-rd / signhide / no-tskip / nr-intra=0 / nr-inter=0 / no-constrained-intra / strong-intra-smoothing / max-merge=3 / limit-refs=3 / limit-modes / me=3 / subme=3 / merange=57 / temporal-mvp / weightp / no-weightb / no-analyze-src-pics / deblock=0:0 / sao / no-sao-non-deblock / rd=4 / no-early-skip / rskip / no-fast-intra / no-tskip-fast / no-cu-lossless / no-b-intra / no-splitrd-skip / rdpenalty=0 / psy-rd=2.00 / psy-rdoq=1.00 / no-rd-refine / analysis-reuse-mode=0 / no-lossless / cbqpoffs=0 / crqpoffs=0 / rc=crf / crf=23.0 / qcomp=0.60 / qpstep=4 / stats-write=0 / stats-read=0 / vbv-maxrate=160000 / vbv-bufsize=160000 / vbv-init=0.9 / crf-max=0.0 / crf-min=0.0 / ipratio=1.40 / pbratio=1.30 / aq-mode=1 / aq-strength=1.00 / cutree / zone-count=0 / no-strict-cbr / qg-size=32 / no-rc-grain / qpmax=69 / qpmin=0 / no-const-vbv / sar=1 / overscan=0 / videoformat=5 / range=0 / colorprim=1 / transfer=1 / colormatrix=1 / chromaloc=0 / display-window=0 / max-cll=0,0 / min-luma=0 / max-luma=1023 / log2-max-poc-lsb=8 / vui-timing-info / vui-hrd-info / slices=1 / no-opt-qp-pps / no-opt-ref-list-length-pps / no-multi-pass-opt-rps / scenecut-bias=0.05 / no-opt-cu-delta-qp / no-aq-motion / no-hdr / no-hdr-opt / no-dhdr10-opt / analysis-reuse-level=5 / scale-factor=0 / refine-intra=0 / refine-inter=0 / refine-mv=0 / no-limit-sao / ctu-info=0 / no-lowpass-dct / refine-mv-type=0 / copy-pic=1
Default                                  : Yes
Forced                                   : No
Color range                              : Limited
Color primaries                          : BT.709
Transfer characteristics                 : BT.709
Matrix coefficients                      : BT.709

Audio #1
ID                                       : 2
Format                                   : AC-3
Format/Info                              : Audio Coding 3
Commercial name                          : Dolby Digital
Codec ID                                 : A_AC3
Duration                                 : 2 h 23 min
Bit rate mode                            : Constant
Bit rate                                 : 448 kb/s
Channel(s)                               : 6 channels
Channel layout                           : L R C LFE Ls Rs
Sampling rate                            : 48.0 kHz
Frame rate                               : 31.250 FPS (1536 SPF)
Bit depth                                : 16 bits
Compression mode                         : Lossy
Stream size                              : 459 MiB (10%)
Title                                    : Latino Bluray 5.1
Language                                 : Spanish
Service kind                             : Complete Main
Default                                  : Yes
Forced                                   : No

Audio #2
ID                                       : 3
Format                                   : AC-3
Format/Info                              : Audio Coding 3
Commercial name                          : Dolby Digital
Codec ID                                 : A_AC3
Duration                                 : 2 h 23 min
Bit rate mode                            : Constant
Bit rate                                 : 448 kb/s
Channel(s)                               : 6 channels
Channel layout                           : L R C LFE Ls Rs
Sampling rate                            : 48.0 kHz
Frame rate                               : 31.250 FPS (1536 SPF)
Bit depth                                : 16 bits
Compression mode                         : Lossy
Stream size                              : 459 MiB (10%)
Title                                    : Bluray 5.1
Language                                 : English
Service kind                             : Complete Main
Default                                  : No
Forced                                   : No

Text #1
ID                                       : 4
Format                                   : UTF-8
Codec ID                                 : S_TEXT/UTF8
Codec ID/Info                            : UTF-8 Plain Text
Duration                                 : 1 h 46 min
Bit rate                                 : 0 b/s
Count of elements                        : 7
Stream size                              : 222 Bytes (0%)
Title                                    : Forzados
Language                                 : Spanish
Default                                  : Yes
Forced                                   : No

Text #2
ID                                       : 5
Format                                   : UTF-8
Codec ID                                 : S_TEXT/UTF8
Codec ID/Info                            : UTF-8 Plain Text
Duration                                 : 2 h 14 min
Bit rate                                 : 37 b/s
Count of elements                        : 1126
Stream size                              : 36.6 KiB (0%)
Title                                    : Completos
Language                                 : Spanish
Default                                  : No
Forced                                   : No



★ CONTRASEÑA ★

Código:
www.club-hd.com[/CENTER]



★ DESCARGA ★

Todos los links son Intercambiables!



Enlaces de Mega y Google Drive solo disponibles para Miembros VIP

Compra tu Membresía VIP y apoya a Club-HD!

ATENCIÓN! Tenemos TODO el material de Club-HD disponible por Mega y Google Drive, enlaces 100% activos y online hasta la fecha

Llévate tus cuentas Mega PRO II gratis con tu membresía VIP!
Todos los posts vivos con links de Mega y Google Drive.
Todo el material de Club-HD desbloqueado y sin publicidad.

Click Aquí para más información.



Enlaces de Mega y Google Drive solo disponibles para Miembros VIP

Compra tu Membresía VIP y apoya a Club-HD!

ATENCIÓN! Tenemos TODO el material de Club-HD disponible por Mega y Google Drive, enlaces 100% activos y online hasta la fecha

Llévate tus cuentas Mega PRO II gratis con tu membresía VIP!
Todos los posts vivos con links de Mega y Google Drive.
Todo el material de Club-HD desbloqueado y sin publicidad.

Click Aquí para más información.



Para ver este contenido oculto, debes dar click en una de las siguientes reacciones: Like Like, Love Love, Haha Haha, Wow Wow, Sad Sad, Angry Angry



Para ver este contenido oculto, debes dar click en una de las siguientes reacciones: Like Like, Love Love, Haha Haha, Wow Wow, Sad Sad, Angry Angry

Para ver este contenido oculto, debes dar click en una de las siguientes reacciones: Like Like, Love Love, Haha Haha, Wow Wow, Sad Sad, Angry Angry
 
Última edición por un moderador:

Josiba

Well-known member
Registrado
27 Ago 2012
Mensajes
5,751
Puntos de reacción
266
Puntos
83
Edad
51
Re: Aquaman (2018) IMAX 1080p BDRip Dual Latino-Inglés [Subt. Esp] (Fantástico. Acción)

Desc_g_
 

phillip64

Active member
Registrado
29 Ago 2012
Mensajes
679
Puntos de reacción
89
Puntos
28
Re: Aquaman (2018) IMAX 1080p BDRip Dual Latino-Inglés [Subt. Esp] (Fantástico. Acción)

gracias amigos
 

flujo

Well-known member
Registrado
28 Dic 2014
Mensajes
6,956
Puntos de reacción
228
Puntos
83
Re: Aquaman (2018) IMAX 1080p BDRip Dual Latino-Inglés [Subt. Esp] (Fantástico. Acción)

gracias
 

jererado

Active member
Miembro VIP
Registrado
11 Jul 2014
Mensajes
911
Puntos de reacción
48
Puntos
28
Re: Aquaman (2018) IMAX 1080p BDRip Dual Latino-Inglés [Subt. Esp] (Fantástico. Acción)

Excelente Gracias Desc_g_
 

eljumachi

Well-known member
Registrado
27 Ago 2012
Mensajes
2,161
Puntos de reacción
329
Puntos
83
Re: Aquaman (2018) IMAX 1080p BDRip Dual Latino-Inglés [Subt. Esp] (Fantástico. Acción)

Gracias B:B saludos Desc_g_
 

eljumachi

Well-known member
Registrado
27 Ago 2012
Mensajes
2,161
Puntos de reacción
329
Puntos
83
Re: Aquaman (2018) IMAX 1080p BDRip Dual Latino-Inglés [Subt. Esp] (Fantástico. Acción)

Pnsand0 A de ser en el peso del vídeo :crcjd: lo averiguare al descargarlo byeDesc_g_
 

gauchoargentino

Active member
Registrado
4 Oct 2015
Mensajes
687
Puntos de reacción
39
Puntos
28
Edad
44
Re: Aquaman (2018) IMAX 1080p BDRip Dual Latino-Inglés [Subt. Esp] (Fantástico. Acción)

Gracias
por compartir
 

Brady

Moderador
Miembro del Staff
Moderador
Uploader
Registrado
1 Jun 2016
Mensajes
2,589
Puntos de reacción
40,292
Puntos
113
Edad
24
Re: Aquaman (2018) IMAX 1080p BDRip Dual Latino-Inglés [Subt. Esp] (Fantástico. Acción)

Pnsand0 A de ser en el peso del vídeo :crcjd: lo averiguare al descargarlo byeDesc_g_
La diferencia, es que la de hemo es un bdrip de AVC x264, y esta es bdrip HEVC x265
 

adfsm76

New member
Registrado
6 Feb 2014
Mensajes
368
Puntos de reacción
14
Puntos
0
graciuassssssssssssssssssssssssssssssssssss
 

Bebesaurio

Novio de Vizard
Miembro del Staff
Moderador
Uploader
Registrado
12 Mar 2018
Mensajes
597
Puntos de reacción
14,555
Puntos
93
Edad
21

Usuarios Que Están Viendo Este Tema (Total: 1, Miembros: 0, Invitados: 1)

Quien Leyó Este Tema (Total Miembros: 1)

Arriba