Army Of Darkness (1992) 720p BDRip Dual Latino-Inglés [Subt. Esp-Ing] (Aventuras. Fantástico. Terror. Comedia. Acción)

Max

Admin
Miembro del Staff
Administrador
Registro
8 Ago 2012
Mensajes
5.583
Reacciones
23.722
Puntos
113
Ubicación
Disco C

Reputation:





TÍTULO ORIGINAL: Army of Darkness (Evil Dead 3) (Army of Darkness: Evil Dead III)
TÍTULO EN LATINO: Evil Dead 3: El Ejército de las Tinieblas (Arg) | El despertar del diablo 3 (Méx) | El ejército macabro (Per)
AÑO: 1992
DURACIÓN: 83 min.
PAÍS: Estados Unidos
DIRECTOR: Sam Raimi
GUIÓN: Sam Raimi, Ivan Raimi
MÚSICA: Joseph LoDuca (Tema: Danny Elfman)
FOTOGRAFÍA: Bill Pope
REPARTO: Bruce Campbell, Embeth Davidtz, Bridget Fonda, Marcus Gilbert, Ian Abercrombie, Richard Grove
PRODUCTORA: Dino de Laurentiis Communications presents a Reinaissance Picture production
PREMIOS:
1992: Festival de Sitges: Sección oficial largometrajes a concurso
GÉNERO: Aventuras. Fantástico. Terror. Comedia. Acción. Romance | Secuela. Siglo XIII. Edad Media. Posesiones/Exorcismos. Comedia de terror. Película de culto

http://www.imdb.com/title/tt0106308/?ref_=fn_al_tt_1






Inglaterra, siglo XIII. Las fuerzas del Mal ejercen su reinado en la Edad Media. Valerosos caballeros se disponen a entrar en desigual batalla, mientras los atemorizados campesinos se refugian tras los muros del castillo. Todo cambia con la inesperada llegada de un nuevo héroe, provisto de sofisticadas armas y que dice provenir del siglo XX.









































Código:
General
Complete name                            : Army Of Darkness (1992) 720p BDRip Dual Latino-Inglés [Subt. Esp-Ing].mkv
Format                                   : Matroska
Format version                           : Version 4 / Version 2
File size                                : 2.73 GiB
Duration                                 : 1h 20mn
Overall bit rate                         : 4 829 Kbps
Movie name                               : Army Of Darkness (1992) 720p BDRip Dual Latino-Inglés [Subt. Esp-Ing]
Encoded date                             : UTC 2013-01-22 03:04:53
Writing application                      : mkvmerge v6.0.0 ('Coming Up For Air') built on Jan 20 2013 09:52:00
Writing library                          : libebml v1.3.0 + libmatroska v1.4.0

Video
ID                                       : 1
Format                                   : AVC
Format/Info                              : Advanced Video Codec
Format profile                           : High@L4.0
Format settings, CABAC                   : Yes
Format settings, ReFrames                : 7 frames
Codec ID                                 : V_MPEG4/ISO/AVC
Duration                                 : 1h 20mn
Bit rate                                 : 4 000 Kbps
Width                                    : 1 280 pixels
Height                                   : 688 pixels
Display aspect ratio                     : 1.85:1
Frame rate mode                          : Constant
Frame rate                               : 23.976 fps
Color space                              : YUV
Chroma subsampling                       : 4:2:0
Bit depth                                : 8 bits
Scan type                                : Progressive
Bits/(Pixel*Frame)                       : 0.189
Stream size                              : 2.20 GiB (81%)
Title                                    : Army Of Darkness (1992) 720p BDRip Dual Latino-Inglés [Subt. Esp-Ing]
Writing library                          : x264 core 120
Encoding settings                        : cabac=1 / ref=8 / deblock=1:-2:-2 / analyse=0x3:0x133 / me=umh / subme=10 / psy=1 / psy_rd=2.00:0.00 / mixed_ref=1 / me_range=32 / chroma_me=1 / trellis=2 / 8x8dct=1 / cqm=0 / deadzone=21,11 / fast_pskip=1 / chroma_qp_offset=-2 / threads=24 / sliced_threads=0 / nr=0 / decimate=1 / interlaced=0 / bluray_compat=0 / constrained_intra=0 / bframes=3 / b_pyramid=1 / b_adapt=1 / b_bias=0 / direct=1 / weightb=1 / open_gop=0 / weightp=2 / keyint=240 / keyint_min=24 / scenecut=40 / intra_refresh=0 / rc_lookahead=50 / rc=2pass / mbtree=1 / bitrate=4000 / ratetol=1.0 / qcomp=0.60 / qpmin=3 / qpmax=69 / qpstep=4 / cplxblur=20.0 / qblur=0.5 / ip_ratio=1.40 / aq=1:1.00
Language                                 : English
Default                                  : Yes
Forced                                   : No
Color primaries                          : BT.709
Transfer characteristics                 : BT.709
Matrix coefficients                      : BT.709

Audio #1
ID                                       : 2
Format                                   : AC-3
Format/Info                              : Audio Coding 3
Mode extension                           : CM (complete main)
Format settings, Endianness              : Big
Codec ID                                 : A_AC3
Duration                                 : 1h 20mn
Bit rate mode                            : Constant
Bit rate                                 : 192 Kbps
Channel(s)                               : 2 channels
Channel positions                        : Front: L R
Sampling rate                            : 48.0 KHz
Bit depth                                : 16 bits
Compression mode                         : Lossy
Stream size                              : 111 MiB (4%)
Title                                    : Army Of Darkness (1992) - Español Latino AC3 2.0
Language                                 : Spanish
Default                                  : Yes
Forced                                   : No

Audio #2
ID                                       : 3
Format                                   : AC-3
Format/Info                              : Audio Coding 3
Mode extension                           : CM (complete main)
Format settings, Endianness              : Big
Codec ID                                 : A_AC3
Duration                                 : 1h 20mn
Bit rate mode                            : Constant
Bit rate                                 : 640 Kbps
Channel(s)                               : 6 channels
Channel positions                        : Front: L C R, Side: L R, LFE
Sampling rate                            : 48.0 KHz
Bit depth                                : 16 bits
Compression mode                         : Lossy
Stream size                              : 370 MiB (13%)
Title                                    : Army Of Darkness (1992) - Inglés AC3 5.1
Language                                 : English
Default                                  : No
Forced                                   : No

Text #1
ID                                       : 4
Format                                   : UTF-8
Codec ID                                 : S_TEXT/UTF8
Codec ID/Info                            : UTF-8 Plain Text
Title                                    : Subtítulos Español
Language                                 : Spanish
Default                                  : No
Forced                                   : No

Text #2
ID                                       : 5
Format                                   : UTF-8
Codec ID                                 : S_TEXT/UTF8
Codec ID/Info                            : UTF-8 Plain Text
Title                                    : Subtítulos Inglés
Language                                 : English
Default                                  : No
Forced                                   : No




Nota: Esta película de culto fue tan loca y delirante que incluso tuvo en una de sus versiones un final alternativo, el cual es el siguiente, está muy bueno! Que lo disfruten mis amigos! :dplgar:











Enlaces de Mega y Fireload solo disponibles para Miembros VIP

Compra tu Membresía VIP y apoya a Club-HD!

ATENCIÓN! Tenemos TODO el material de Club-HD disponible por Mega y Fireload, enlaces 100% activos y online hasta la fecha

Llévate tus cuentas Mega PRO II gratis con tu membresía VIP!
Todos los posts vivos con links de Mega y Fireload.
Todo el material de Club-HD desbloqueado y sin publicidad.

Click Aquí para más información.




Enlaces de Mega y Fireload solo disponibles para Miembros VIP

Compra tu Membresía VIP y apoya a Club-HD!

ATENCIÓN! Tenemos TODO el material de Club-HD disponible por Mega y Fireload, enlaces 100% activos y online hasta la fecha

Llévate tus cuentas Mega PRO II gratis con tu membresía VIP!
Todos los posts vivos con links de Mega y Fireload.
Todo el material de Club-HD desbloqueado y sin publicidad.

Click Aquí para más información.



Para ver este contenido oculto, debes dar click en una de las siguientes reacciones : Like Like, Love Love, Haha Haha, Wow Wow, Sad Sad, Angry Angry
 
Última edición por un moderador:

lopololo

New member
Registro
28 Ago 2012
Mensajes
70
Reacciones
2
Puntos
0

Reputation:

wooooohoooooooo chido banda rifadaaaaaaaaa.......:aplausos: thanks
 

eljumachi

Well-known member
Miembro VIP
Registro
27 Ago 2012
Mensajes
2.174
Reacciones
338
Puntos
83

Reputation:

Gracias Max lo estaba esperando con ansias en este peso, muy agradecido saludos.
 

Usuarios Que Están Viendo Este Tema (Total: 1, Miembros: 0, Invitados: 1)

Arriba