Arthur Christmas (2011) m-720p Dual Latino-Inglés [Subt. Esp-Ing] (Animación)

Maestro Revolver

Well-known member
Miembro del Staff
Administrador
Registro
9 Ago 2012
Mensajes
3.567








TÍTULO ORIGINAL: Arthur Christmas
AÑO: 2011
DURACIÓN: 100 min.
PAÍS: Reino Unido
DIRECTOR: Sarah Smith, Barry Cook
GUIÓN: Peter Baynham, Sarah Smith
REPARTO: Animation
PRODUCTORA: Coproducción Reino Unido-EEUU; Aardman Animations / Sony Pictures Imageworks (SPI)
GÉNERO: Animación. Comedia. Infantil | Navidad. 3-D
http://www.imdb.com/title/tt1430607/

PREMIOS: 2011: Globos de Oro: Nominada a Mejor largometraje de animación
2011: Premios Annie: Mejor doblaje. 6 nominaciones, incluyendo Mejor película
2011: Critics Choice Awards: Nominada a Mejor película de animación
2011: Premios BAFTA: Nominada a Mejor película de animación






Santa Claus cree que su reinado está llegando a su fin y que se acerca ya la hora de jubilarse. Confía en que su hijo Steven, que es muy eficiente y responsable, aunque no muy alegre, esté preparado para tomar el relevo inmediatamente. Sin embargo, esa Navidad surge un problema: uno de los 600 millones de niños a los que había que visitar se queda sin su regalo.
























La pelicula NO tiene ninguna marca... solo colocamos el nombre de esta web en las capturas






Código:
General
Format                           : Matroska
Format version                   : Version 2
File size                        : 2.41 GiB
Duration                         : 1h 37mn
Overall bit rate                 : 3 534 Kbps
Movie name                       : www.club-hd.com
Encoded date                     : UTC 2012-10-21 01:16:50
Writing application              : mkvmerge v5.7.0 ('The Whirlwind') built on Jul  8 2012 20:08:51
Writing library                  : libebml v1.2.3 + libmatroska v1.3.0

Video
ID                               : 1
Format                           : AVC
Format/Info                      : Advanced Video Codec
Format profile                   : High@L4.1
Format settings, CABAC           : Yes
Format settings, ReFrames        : 8 frames
Codec ID                         : V_MPEG4/ISO/AVC
Duration                         : 1h 37mn
Bit rate                         : 2 635 Kbps
Width                            : 1 280 pixels
Height                           : 694 pixels
Display aspect ratio             : 16:9
Frame rate                       : 23.976 fps
Color space                      : YUV
Chroma subsampling               : 4:2:0
Bit depth                        : 8 bits
Scan type                        : Progressive
Bits/(Pixel*Frame)               : 0.124
Stream size                      : 1.75 GiB (73%)
Title                            : www.club-hd.com
Writing library                  : x264 core 128 r2216 198a7ea
Language                         : English
Default                          : Yes
Forced                           : No

Audio #1
ID                               : 2
Format                           : AC-3
Format/Info                      : Audio Coding 3
Mode extension                   : CM (complete main)
Codec ID                         : A_AC3
Duration                         : 1h 37mn
Bit rate mode                    : Constant
Bit rate                         : 448 Kbps
Channel(s)                       : 6 channels
Channel positions                : Front: L C R, Side: L R, LFE
Sampling rate                    : 48.0 KHz
Bit depth                        : 16 bits
Compression mode                 : Lossy
Stream size                      : 313 MiB (13%)
Title                            : www.club-hd.com  >>  Latino
Language                         : Spanish
Default                          : Yes
Forced                           : No

Audio #2
ID                               : 3
Format                           : AC-3
Format/Info                      : Audio Coding 3
Mode extension                   : CM (complete main)
Codec ID                         : A_AC3
Duration                         : 1h 37mn
Bit rate mode                    : Constant
Bit rate                         : 448 Kbps
Channel(s)                       : 6 channels
Channel positions                : Front: L C R, Side: L R, LFE
Sampling rate                    : 48.0 KHz
Bit depth                        : 16 bits
Compression mode                 : Lossy
Stream size                      : 313 MiB (13%)
Title                            : www.club-hd.com  >>  Inglés
Language                         : English
Default                          : No
Forced                           : No

Text #1
ID                               : 4
Format                           : UTF-8
Codec ID                         : S_TEXT/UTF8
Codec ID/Info                    : UTF-8 Plain Text
Language                         : Spanish
Default                          : No
Forced                           : No

Text #2
ID                               : 5
Format                           : UTF-8
Codec ID                         : S_TEXT/UTF8
Codec ID/Info                    : UTF-8 Plain Text
Language                         : English
Default                          : No
Forced                           : No

Menu
00:00:00.000                     : en:Chapter 1
00:04:37.777                     : en:Chapter 2
00:08:52.615                     : en:Chapter 3
00:16:27.153                     : en:Chapter 4
00:19:48.729                     : en:Chapter 5
00:23:23.819                     : en:Chapter 6
00:28:59.321                     : en:Chapter 7
00:33:28.924                     : en:Chapter 8
00:39:22.277                     : en:Chapter 9
00:44:45.558                     : en:Chapter 10
00:52:49.375                     : en:Chapter 11
00:58:48.942                     : en:Chapter 12
01:06:00.290                     : en:Chapter 13
01:13:49.342                     : en:Chapter 14
01:20:36.957                     : en:Chapter 15
01:29:48.174                     : en:Chapter 16











Enlaces de Mega y Google Drive solo disponibles para Miembros VIP

Compra tu Membresía VIP y apoya a Club-HD!

ATENCIÓN! Tenemos TODO el material de Club-HD disponible por Mega y Google Drive, enlaces 100% activos y online hasta la fecha

Llévate tus cuentas Mega PRO III gratis con tu membresía VIP!
Todos los posts vivos con links de Mega y Google Drive.
Todo el material de Club-HD desbloqueado y sin publicidad.

Click Aquí para más información.



Enlaces de Mega y Google Drive solo disponibles para Miembros VIP

Compra tu Membresía VIP y apoya a Club-HD!

ATENCIÓN! Tenemos TODO el material de Club-HD disponible por Mega y Google Drive, enlaces 100% activos y online hasta la fecha

Llévate tus cuentas Mega PRO III gratis con tu membresía VIP!
Todos los posts vivos con links de Mega y Google Drive.
Todo el material de Club-HD desbloqueado y sin publicidad.

Click Aquí para más información.

Enlaces de Mega y Google Drive solo disponibles para Miembros VIP

Compra tu Membresía VIP y apoya a Club-HD!

ATENCIÓN! Tenemos TODO el material de Club-HD disponible por Mega y Google Drive, enlaces 100% activos y online hasta la fecha

Llévate tus cuentas Mega PRO III gratis con tu membresía VIP!
Todos los posts vivos con links de Mega y Google Drive.
Todo el material de Club-HD desbloqueado y sin publicidad.

Click Aquí para más información.

Para ver este contenido oculto, debes dar click en una de las siguientes reacciones : Like Like, Love Love, Haha Haha, Wow Wow, Sad Sad, Angry Angry

Para ver este contenido oculto, debes dar click en una de las siguientes reacciones : Like Like, Love Love, Haha Haha, Wow Wow, Sad Sad, Angry Angry
 
Última edición:

arkkangeldark

Well-known member
Registro
27 Ago 2012
Mensajes
3.499
Edad
35
Ubicación
Torreon Coahuila
excelente revolver la esperaba desde el año pasado que salio....quien sabe porque se tardo en salir en la red casi un año....una pregunta tienes pensado subirla en 1080p??? gracias y saludos
 

Usuarios Que Están Viendo Este Tema (Total: 1, Miembros: 0, Invitados: 1)

Quién Leyó Este Tema (Total Miembros: 1)

Arriba