• Este aviso va dirigido a todos los nuevos miembros recien llegados a Club-HD. Les recordamos que la direccion URL de este sitio web es , asi que deben acceder únicamente por esta URL. Sean todos bienvenidos al Club!

Avatar (2009) Extended 1080p BDRip Dual Latino-Inglés (Subt. Esp-Ing) [HEVC-10bit] (Ciencia ficción. Acción)

Maestro Revolver

Well-known member
Miembro del Staff
Administrador
Registrado
9 Ago 2012
Mensajes
3,560
Puntos de reacción
57,254
Puntos
113






TÍTULO ORIGINAL: Avatar
AÑO: 2009
DURACIÓN: 161 min.
País:
Estados Unidos
DIRECTOR: James Cameron
GUIÓN: James Cameron
MÚSICA: James Horner
FOTOGRAFÍA: Mauro Fiore
REPARTO: Sam Worthington, Zoe Saldana, Sigourney Weaver, Stephen Lang, Michelle Rodriguez, Giovanni Ribisi, Joel David Moore, Wes Studi, CCH Pounder, Laz Alonso, Dileep Rao, Terry Notary
PRODUCTORA: 20th Century Fox / Lightstorm Entertainment / Giant Studios Inc. Productor: James Cameron
GÉNERO: Ciencia ficción. Aventuras. Bélico. Acción. Fantástico. Romance | Naturaleza. Extraterrestres. 3-D

: https://www.imdb.com/title/tt0499549/





Año 2154. Jake Sully (Sam Worthington), un ex-marine condenado a vivir en una silla de ruedas, sigue siendo, a pesar de ello, un auténtico guerrero. Precisamente por ello ha sido designado para ir a Pandora, donde algunas empresas están extrayendo un mineral extraño que podría resolver la crisis energética de la Tierra. Para contrarrestar la toxicidad de la atmósfera de Pandora, se ha creado el programa Avatar, gracias al cual los seres humanos mantienen sus conciencias unidas a un avatar: un cuerpo biológico controlado de forma remota que puede sobrevivir en el aire letal. Esos cuerpos han sido creados con ADN humano, mezclado con ADN de los nativos de Pandora, los Na'vi. Convertido en avatar, Jake puede caminar otra vez. Su misión consiste en infiltrarse entre los Na'vi, que se han convertido en el mayor obstáculo para la extracción del mineral. Pero cuando Neytiri, una bella Na'vi (Zoe Saldana), salva la vida de Jake, todo cambia: Jake, tras superar ciertas pruebas, es admitido en su clan. Mientras tanto, los hombres esperan los resultados de la misión de Jake.


PREMIOS: 2009: 3 Oscars: fotografía, dirección artística, efectos visuales. 9 nominaciones
2009: 2 Globos de Oro: Mejor película, director. 4 nominaciones
2009: 2 Premios BAFTA: diseño de prod. , efectos especiales. 8 nom., incluyendo mejor film
2009: Círculo de Críticos de Nueva York: Nominada a Mejor fotografía
2009: Asociación de Críticos de Los Angeles: Mejor diseño de producción
2009: 6 Critics' Choice Awards, incluyendo mejor película de acción. 9 nominaciones
2009: Premios César: Nominada a Mejor película extranjera
2009: Asociación de Críticos de Chicago: nominada mejor banda sonora y fotografía
2009: Sindicato de Productores (PGA): Nominada a Mejor película
2009: Sindicato de Directores (DGA): Nominada a Mejor director
2009: Sindicato de Guionistas (WGA): Nominada a Mejor guión original



































General
Format : Matroska
Format version : Version 4 / Version 2
File size : 5.31 GiB
Duration : 2 h 58 min
Overall bit rate : 4 270 kb/s
Movie name : www.club-hd.com
Encoded date : UTC 2018-09-10 22:41:03
Writing application : mkvmerge v20.0.0 ('I Am The Sun') 64-bit
Writing library : libebml v1.3.5 + libmatroska v1.4.8

Video
ID : 1
Format : HEVC
Format/Info : High Efficiency Video Coding
Format profile : Main 10@L4@Main
Codec ID : V_MPEGH/ISO/HEVC
Duration : 2 h 58 min
Bit rate : 3 470 kb/s
Width : 1 920 pixels
Height : 1 080 pixels
Display aspect ratio : 16:9
Frame rate mode : Constant
Frame rate : 23.976 (24000/1001) FPS
Color space : YUV
Chroma subsampling : 4:2:0
Bit depth : 10 bits
Bits/(Pixel*Frame) : 0.070
Stream size : 4.32 GiB (81%)
Title : www.club-hd.com
Writing library : x265 1.9+200-6098ba3e0cf16b11:[Windows][GCC 5.3.0][64 bit] 10bit
Encoding settings : wpp / ctu=64 / min-cu-size=8 / max-tu-size=32 / tu-intra-depth=1 / tu-inter-depth=1 / me=1 / subme=2 / merange=57 / no-rect / no-amp / max-merge=2 / temporal-mvp / no-early-skip / recursion-skip / rdpenalty=0 / no-tskip / no-tskip-fast / strong-intra-smoothing / no-lossless / no-cu-lossless / no-constrained-intra / no-fast-intra / open-gop / no-temporal-layers / interlace=0 / keyint=250 / min-keyint=23 / scenecut=40 / rc-lookahead=20 / lookahead-slices=6 / bframes=4 / bframe-bias=0 / b-adapt=2 / ref=3 / limit-refs=3 / no-limit-modes / weightp / no-weightb / aq-mode=1 / qg-size=32 / aq-strength=1.00 / cbqpoffs=0 / crqpoffs=0 / rd=3 / psy-rd=2.00 / rdoq-level=0 / psy-rdoq=0.00 / no-rd-refine / signhide / deblock=0:0 / sao / no-sao-non-deblock / b-pyramid / cutree / no-intra-refresh / rc=2 / pass / bitrate=3469 / qcomp=0.60 / qpmin=0 / qpmax=51 / qpstep=4 / cplxblur=20.0 / qblur=0.5 / ipratio=1.40 / pbratio=1.30
Language : English
Default : Yes
Forced : No

Audio #1
ID : 2
Format : AC-3
Format/Info : Audio Coding 3
Codec ID : A_AC3
Duration : 2 h 58 min
Bit rate mode : Constant
Bit rate : 448 kb/s
Channel(s) : 6 channels
Channel positions : Front: L C R, Side: L R, LFE
Sampling rate : 48.0 kHz
Frame rate : 31.250 FPS (1536 SPF)
Bit depth : 16 bits
Compression mode : Lossy
Stream size : 571 MiB (10%)
Title : Latino
Language : Spanish
Service kind : Complete Main
Default : Yes
Forced : No

Audio #2
ID : 3
Format : AAC
Format/Info : Advanced Audio Codec
Format profile : LC
Codec ID : A_AAC-2
Duration : 2 h 58 min
Bit rate : 353 kb/s
Channel(s) : 6 channels
Channel positions : Front: L C R, Side: L R, LFE
Sampling rate : 48.0 kHz
Frame rate : 46.875 FPS (1024 SPF)
Compression mode : Lossy
Delay relative to video : 20 ms
Stream size : 446 MiB (8%)
Language : English
Default : No
Forced : No

Text #1
ID : 4
Format : UTF-8
Codec ID : S_TEXT/UTF8
Codec ID/Info : UTF-8 Plain Text
Duration : 2 h 30 min
Bit rate : 1 b/s
Count of elements : 85
Stream size : 1.98 KiB (0%)
Title : Forzados
Language : Spanish
Default : Yes
Forced : No

Text #2
ID : 5
Format : UTF-8
Codec ID : S_TEXT/UTF8
Codec ID/Info : UTF-8 Plain Text
Duration : 2 h 49 min
Bit rate : 37 b/s
Count of elements : 1483
Stream size : 46.6 KiB (0%)
Title : Compeltos
Language : Spanish
Default : No
Forced : No

Text #3
ID : 6
Format : UTF-8
Codec ID : S_TEXT/UTF8
Codec ID/Info : UTF-8 Plain Text
Duration : 2 h 49 min
Bit rate : 38 b/s
Count of elements : 1479
Stream size : 47.5 KiB (0%)
Language : English
Default : No
Forced : No

Menu
00:00:00.000 : en:Chapter 01
00:05:25.575 : en:Chapter 02
00:10:12.278 : en:Chapter 03
00:10:24.457 : en:Chapter 04
00:10:37.303 : en:Chapter 05
00:11:47.915 : en:Chapter 06
00:15:59.208 : en:Chapter 07
00:17:54.782 : en:Chapter 08
00:23:54.891 : en:Chapter 09
00:27:54.547 : en:Chapter 10
00:28:02.555 : en:Chapter 11
00:28:45.223 : en:Chapter 12
00:30:14.020 : en:Chapter 13
00:30:27.617 : en:Chapter 14
00:32:04.464 : en:Chapter 15
00:32:27.904 : en:Chapter 16
00:37:16.525 : en:Chapter 17
00:39:08.054 : en:Chapter 18
00:41:18.476 : en:Chapter 19
00:47:43.318 : en:Chapter 20
00:48:09.177 : en:Chapter 21
00:49:16.912 : en:Chapter 22
00:53:05.015 : en:Chapter 23
00:54:22.008 : en:Chapter 24
00:55:42.213 : en:Chapter 25
00:57:44.043 : en:Chapter 26
00:58:32.050 : en:Chapter 27
01:01:09.415 : en:Chapter 28
01:03:09.619 : en:Chapter 29
01:03:57.208 : en:Chapter 30
01:07:03.227 : en:Chapter 31
01:09:40.634 : en:Chapter 32
01:11:50.222 : en:Chapter 33
01:15:18.889 : en:Chapter 34
01:15:53.799 : en:Chapter 35
01:17:32.230 : en:Chapter 36
01:18:07.891 : en:Chapter 37
01:22:38.119 : en:Chapter 38
01:25:59.487 : en:Chapter 39
01:26:12.709 : en:Chapter 40
01:27:42.298 : en:Chapter 41
01:27:54.435 : en:Chapter 42
01:33:00.408 : en:Chapter 43
01:36:03.424 : en:Chapter 44
01:37:36.642 : en:Chapter 45
01:37:36.892 : en:Chapter 46
01:44:15.290 : en:Chapter 47
01:46:49.236 : en:Chapter 48
01:48:14.029 : en:Chapter 49
01:48:58.198 : en:Chapter 50
01:50:02.596 : en:Chapter 51
01:51:53.581 : en:Chapter 52
01:58:30.895 : en:Chapter 53
02:02:13.284 : en:Chapter 54
02:07:51.664 : en:Chapter 55
02:09:30.554 : en:Chapter 56
02:12:36.615 : en:Chapter 57
02:16:03.363 : en:Chapter 58
02:19:31.654 : en:Chapter 59
02:23:59.631 : en:Chapter 60
02:30:05.079 : en:Chapter 61
02:32:13.290 : en:Chapter 62
02:32:59.211 : en:Chapter 63
02:33:56.852 : en:Chapter 64
02:34:52.908 : en:Chapter 65
02:40:02.259 : en:Chapter 66
02:40:45.886 : en:Chapter 67
02:41:03.987 : en:Chapter 68
02:45:33.214 : en:Chapter 69
02:46:30.814 : en:Chapter 70
02:46:48.498 : en:Chapter 71
02:48:56.793 : en:Chapter 72
02:49:11.724 : en:Chapter 73
02:51:32.073 : en:Chapter 74
02:58:08.469 : en:Chapter 75










www.club-hd.com











Enlaces de Mega y Google Drive solo disponibles para Miembros VIP

Compra tu Membresía VIP y apoya a Club-HD!

ATENCIÓN! Tenemos TODO el material de Club-HD disponible por Mega y Google Drive, enlaces 100% activos y online hasta la fecha

Llévate tus cuentas Mega PRO II gratis con tu membresía VIP!
Todos los posts vivos con links de Mega y Google Drive.
Todo el material de Club-HD desbloqueado y sin publicidad.

Click Aquí para más información.



Enlaces de Mega y Google Drive solo disponibles para Miembros VIP

Compra tu Membresía VIP y apoya a Club-HD!

ATENCIÓN! Tenemos TODO el material de Club-HD disponible por Mega y Google Drive, enlaces 100% activos y online hasta la fecha

Llévate tus cuentas Mega PRO II gratis con tu membresía VIP!
Todos los posts vivos con links de Mega y Google Drive.
Todo el material de Club-HD desbloqueado y sin publicidad.

Click Aquí para más información.



Para ver este contenido oculto, debes dar click en una de las siguientes reacciones: Like Like, Love Love, Haha Haha, Wow Wow, Sad Sad, Angry Angry



Para ver este contenido oculto, debes dar click en una de las siguientes reacciones: Like Like, Love Love, Haha Haha, Wow Wow, Sad Sad, Angry Angry


 

VHD

Active member
Registrado
28 Ago 2012
Mensajes
1,284
Puntos de reacción
23
Puntos
38
Gracias...
 

CinefiloCool

Need, Search, Find, Share
Colaborador
Miembro VIP
Registrado
6 Abr 2017
Mensajes
482
Puntos de reacción
4,097
Puntos
93
Ubicación
zion, Rivendel, Hill Valley, pandora, Coruscant o
La ventaja (para mi :p ) de que ya cuenten como opcion este Codec es que me ahorraran trabajo a futuro l0l
aun prefiero AVC/x264 pero se que cuando se establezca como un estandar como el x264 ahora tendre que ir actualizando mi biblioteca y ahora... pues mucho mas facil, asi ya solo lo busco aqui sin necesidad de buscar videos, sub y audio latino por sepaado :dplgar:
gracias Revo y todos los que han ido posteando asi :call::fiesta2::LXR:
 

Yaotll

Member
Registrado
14 Sep 2012
Mensajes
82
Puntos de reacción
7
Puntos
8
Ya bajé la de h264, ahora voy a bajar esta para comparar, porque mi cafetera puja con el HEVC. Muchas gracias
 

Usuarios Que Están Viendo Este Tema (Total: 1, Miembros: 0, Invitados: 1)

Quien Leyó Este Tema (Total Miembros: 1)

Arriba