Bad Boys (1995) 720p BDRip Dual Latino-Inglés [Subt. Esp] (Acción. Comedia)

Maestro Revolver

Well-known member
Miembro del Staff
Administrador
Registro
9 Ago 2012
Mensajes
3.567








TÍTULO ORIGINAL: Bad Boys
AÑO: 1995
DURACIÓN: 118 min.
PAÍS: USA
DIRECTOR: Michael Bay
GUIÓN: Michael Barrie, Jim Mulholland, Thomas Pope, Doug Richardson
REPARTO: Martin Lawrence, Will Smith, Téa Leoni, Tcheky Karyo, Joe Pantoliano, Theresa Randle, Marg Helgenberger, Anna Thomson (AKA Anna Levine), Nestor Serrano, Kevin Corrigan
PRODUCTORA: Columbia Pictures. Productor: Jerry Bruckheimer
GÉNERO: Acción. Comedia | Policíaco
: http://www.imdb.com/title/tt0112442/






Un alijo de heroína valorado en unos 100 millones de dólares es robado del mismísimo depósito de la policía. El caso le será asignado a los agentes Burnett y Lowery, una pareja muy peculiar por los métodos que utilizan. La única pista que tienen para comenzar es la de una testigo que les ayudará a identificar a los atracadores, y a la que tendrán que proteger.
























La pelicula NO tiene ninguna marca... solo colocamos el nombre de esta web en las capturas






Código:
General
Format                                   : Matroska
Format version                           : Version 2
File size                                : 4.34 GiB
Duration                                 : 1h 58mn
Overall bit rate                         : 5 229 Kbps
Movie name                               : www.club-hd.com
Encoded date                             : UTC 2013-08-31 17:14:38
Writing application                      : mkvmerge v5.7.0 ('The Whirlwind') built on Jul  8 2012 20:08:51
Writing library                          : libebml v1.2.3 + libmatroska v1.3.0

Video
ID                                       : 1
Format                                   : AVC
Format/Info                              : Advanced Video Codec
Format profile                           : High@L4.1
Format settings, CABAC                   : Yes
Format settings, ReFrames                : 8 frames
Codec ID                                 : V_MPEG4/ISO/AVC
Bit rate                                 : 4 000 Kbps
Width                                    : 1 280 pixels
Height                                   : 688 pixels
Display aspect ratio                     : 1.85:1
Frame rate mode                          : Variable
Color space                              : YUV
Chroma subsampling                       : 4:2:0
Bit depth                                : 8 bits
Scan type                                : Progressive
Title                                    : www.club-hd.com
Writing library                          : x264 core 120
Language                                 : English
Default                                  : Yes
Forced                                   : No
Color primaries                          : BT.709
Transfer characteristics                 : BT.709
Matrix coefficients                      : BT.709

Audio #1
ID                                       : 2
Format                                   : AC-3
Format/Info                              : Audio Coding 3
Mode extension                           : CM (complete main)
Format settings, Endianness              : Big
Codec ID                                 : A_AC3
Duration                                 : 1h 58mn
Bit rate mode                            : Constant
Bit rate                                 : 640 Kbps
Channel(s)                               : 6 channels
Channel positions                        : Front: L C R, Side: L R, LFE
Sampling rate                            : 48.0 KHz
Bit depth                                : 16 bits
Compression mode                         : Lossy
Stream size                              : 544 MiB (12%)
Title                                    : www.club-hd.com > Latino AC3 5.1
Language                                 : Spanish
Default                                  : Yes
Forced                                   : No

Audio #2
ID                                       : 3
Format                                   : AC-3
Format/Info                              : Audio Coding 3
Mode extension                           : CM (complete main)
Format settings, Endianness              : Big
Codec ID                                 : A_AC3
Duration                                 : 1h 58mn
Bit rate mode                            : Constant
Bit rate                                 : 640 Kbps
Channel(s)                               : 6 channels
Channel positions                        : Front: L C R, Side: L R, LFE
Sampling rate                            : 48.0 KHz
Bit depth                                : 16 bits
Compression mode                         : Lossy
Stream size                              : 544 MiB (12%)
Title                                    : www.club-hd.com > Inglés AC3 5.1
Language                                 : English
Default                                  : No
Forced                                   : No

Text
ID                                       : 4
Format                                   : UTF-8
Codec ID                                 : S_TEXT/UTF8
Codec ID/Info                            : UTF-8 Plain Text
Language                                 : Spanish
Default                                  : No
Forced                                   : No

Menu
00:00:00.000                             : en:Chapter 00
00:06:37.105                             : en:Chapter 01
00:15:29.303                             : en:Chapter 02
00:20:50.874                             : en:Chapter 03
00:29:11.416                             : en:Chapter 04
00:35:19.992                             : en:Chapter 05
00:42:19.787                             : en:Chapter 06
00:50:59.056                             : en:Chapter 07
00:59:15.718                             : en:Chapter 08
01:04:30.867                             : en:Chapter 09
01:13:50.801                             : en:Chapter 10
01:19:42.486                             : en:Chapter 11
01:27:59.524                             : en:Chapter 12
01:33:25.725                             : en:Chapter 13
01:41:20.616                             : en:Chapter 14
01:48:48.688                             : en:Chapter 15








Enlaces de Mega y Google Drive solo disponibles para Miembros VIP

Compra tu Membresía VIP y apoya a Club-HD!

ATENCIÓN! Tenemos TODO el material de Club-HD disponible por Mega y Google Drive, enlaces 100% activos y online hasta la fecha

Llévate tus cuentas Mega PRO III gratis con tu membresía VIP!
Todos los posts vivos con links de Mega y Google Drive.
Todo el material de Club-HD desbloqueado y sin publicidad.

Click Aquí para más información.


Para ver este contenido oculto, debes dar click en una de las siguientes reacciones : Like Like, Love Love, Haha Haha, Wow Wow, Sad Sad, Angry Angry



 
Última edición por un moderador:

Usuarios Que Están Viendo Este Tema (Total: 1, Miembros: 0, Invitados: 1)

Quién Leyó Este Tema (Total Miembros: 2)

Arriba