Batman (1989) 1080p BDRip Dual Latino-Inglés [Subt. Esp] (Fantástico. Thriller. Acción)

Maestro Revolver

Well-known member
Miembro del Staff
Administrador
Registro
9 Ago 2012
Mensajes
3.567

Aporte Recuperado gracias a nuestro amigo sharklui







TÍTULO ORIGINAL: Batman (AKA Tim Burton's Batman)
AÑO: 1989
DURACIÓN: 118 min.
PAÍS: USA
DIRECTOR: Tim Burton
GUIÓN: Sam Hamm, Warren Skaaren (Cómic: Bob Kane)
REPARTO: Michael Keaton, Jack Nicholson, Kim Basinger, Robert Wuhl, Pat Hingle, Billy Dee Williams, Michael Gough, Jack Palance, Jerry Hall, Tracey Walter, Lee Wallace, William Hootkins, Philip Tan
PRODUCTORA: Coproducción EEUU-Reino Unido; Warner Bros. Pictures / PolyGram Filmed Entertainment
GÉNERO: Fantástico. Thriller. Acción | Superhéroes. Cómic. DC Comics. Película de culto
: http://www.imdb.com/title/tt0096895/






Cinta basada en el cómic homónimo. La oscura y peligrosa ciudad de Gotham tan sólo se halla protegida por su corrupto cuerpo de policía. A pesar de los esfuerzos del fiscal del distrito Harvey Dent y el comisionado de policía Jim Gordon, la ciudad es cada vez más insegura hasta que aparece Batman, el Señor de la Noche. La reputada periodista Vicky Vale intentará descubrir el secreto que se oculta tras el hombre murciélago.
























La pelicula NO tiene ninguna marca... solo colocamos el nombre de esta web en las capturas






Código:
General
Format                                   : Matroska
Format version                           : Version 2
File size                                : 8.92 GiB
Duration                                 : 2h 6mn
Overall bit rate                         : 10.1 Mbps
Movie name                               : www.club-hd.com
Encoded date                             : UTC 2013-04-17 04:58:32
Writing application                      : mkvmerge v5.7.0 ('The Whirlwind') built on Jul  8 2012 20:08:51
Writing library                          : libebml v1.2.3 + libmatroska v1.3.0

Video
ID                                       : 1
Format                                   : AVC
Format/Info                              : Advanced Video Codec
Format profile                           : High@L4.1
Format settings, CABAC                   : Yes
Format settings, ReFrames                : 4 frames
Codec ID                                 : V_MPEG4/ISO/AVC
Duration                                 : 2h 6mn
Bit rate                                 : 9 272 Kbps
Width                                    : 1 920 pixels
Height                                   : 1 080 pixels
Display aspect ratio                     : 16:9
Frame rate mode                          : Constant
Frame rate                               : 23.976 fps
Color space                              : YUV
Chroma subsampling                       : 4:2:0
Bit depth                                : 8 bits
Scan type                                : Progressive
Bits/(Pixel*Frame)                       : 0.186
Stream size                              : 8.01 GiB (90%)
Title                                    : www.club-hd.com
Writing library                          : x264 core 65 r1057 5f8a149
Language                                 : English
Default                                  : Yes
Forced                                   : No

Audio #1
ID                                       : 2
Format                                   : AC-3
Format/Info                              : Audio Coding 3
Format profile                           : Dolby Digital
Mode extension                           : CM (complete main)
Format settings, Endianness              : Big
Codec ID                                 : A_AC3
Duration                                 : 2h 6mn
Bit rate mode                            : Constant
Bit rate                                 : 192 Kbps
Channel(s)                               : 2 channels
Channel positions                        : Front: L R
Sampling rate                            : 48.0 KHz
Bit depth                                : 16 bits
Compression mode                         : Lossy
Stream size                              : 173 MiB (2%)
Title                                    : www.club-hd.com  >>  Latino
Language                                 : Spanish
Default                                  : Yes
Forced                                   : No

Audio #2
ID                                       : 3
Format                                   : AC-3
Format/Info                              : Audio Coding 3
Mode extension                           : CM (complete main)
Format settings, Endianness              : Big
Codec ID                                 : A_AC3
Duration                                 : 2h 6mn
Bit rate mode                            : Constant
Bit rate                                 : 640 Kbps
Channel(s)                               : 6 channels
Channel positions                        : Front: L C R, Side: L R, LFE
Sampling rate                            : 48.0 KHz
Bit depth                                : 16 bits
Compression mode                         : Lossy
Stream size                              : 578 MiB (6%)
Title                                    : www.club-hd.com  >>  Inglés
Language                                 : English
Default                                  : No
Forced                                   : No

Text
ID                                       : 4
Format                                   : UTF-8
Codec ID                                 : S_TEXT/UTF8
Codec ID/Info                            : UTF-8 Plain Text
Language                                 : Spanish
Default                                  : No
Forced                                   : No







Código:
www.club-hd.com[/CENTER]







Todos los links son Intercambiables!



Enlaces de Mega y Google Drive solo disponibles para Miembros VIP

Compra tu Membresía VIP y apoya a Club-HD!

ATENCIÓN! Tenemos TODO el material de Club-HD disponible por Mega y Google Drive, enlaces 100% activos y online hasta la fecha

Llévate tus cuentas Mega PRO III gratis con tu membresía VIP!
Todos los posts vivos con links de Mega y Google Drive.
Todo el material de Club-HD desbloqueado y sin publicidad.

Click Aquí para más información.



Enlaces de Mega y Google Drive solo disponibles para Miembros VIP

Compra tu Membresía VIP y apoya a Club-HD!

ATENCIÓN! Tenemos TODO el material de Club-HD disponible por Mega y Google Drive, enlaces 100% activos y online hasta la fecha

Llévate tus cuentas Mega PRO III gratis con tu membresía VIP!
Todos los posts vivos con links de Mega y Google Drive.
Todo el material de Club-HD desbloqueado y sin publicidad.

Click Aquí para más información.


Para ver este contenido oculto, debes dar click en una de las siguientes reacciones : Like Like, Love Love, Haha Haha, Wow Wow, Sad Sad, Angry Angry



Para ver este contenido oculto, debes dar click en una de las siguientes reacciones : Like Like, Love Love, Haha Haha, Wow Wow, Sad Sad, Angry Angry
 
Última edición por un moderador:

Aizen05

New member
Registro
28 Ago 2012
Mensajes
769
Ubicación
Kentucky
Muchisimas gracias Revolver!!! llevo meses esperando a que suban estas pelis clasicas de Batman en bdrip 1080... espero que puedas subir el resto.... saludos!!!
 

edward1080

Well-known member
Registro
23 Nov 2012
Mensajes
1.013
Edad
35
Este esta fue una de las primeras películas de Batman que vi, si bien no tiene el gran despliegue de escenarios y efectos que tiene la ultima versión de Batman, se valora mucho en esta por la calidad de actores como el gran Jack Nicholson, todo un clasico!... Genial aporte maestro Revolver!! gracias! :aplausos:
 
Última edición:

Usuarios Que Están Viendo Este Tema (Total: 1, Miembros: 0, Invitados: 1)

Quién Leyó Este Tema (Total Miembros: 5)

Arriba