Batman Begins (2005) m-720p Dual Latino-Inglés [Subt. Esp-Ing] (Thriller. Acción. Drama)

Maestro Revolver

Well-known member
Miembro del Staff
Administrador
Registro
9 Ago 2012
Mensajes
3.569
Reacciones
59.361
Puntos
113

Reputation:










TÍTULO ORIGINAL: Batman Begins
AÑO: 2005
DURACIÓN: 140 min.
PAÍS: USA
DIRECTOR: Christopher Nolan
GUIÓN: David S. Goyer & Christopher Nolan (Personajes: Bob Kane)
REPARTO: Christian Bale, Liam Neeson, Katie Holmes, Cillian Murphy, Michael Caine, Morgan Freeman, Gary Oldman, Ken Watanabe, Tom Wilkinson, Rutger Hauer, Mark Boone Junior, Linus Roache, Rade Serbedzija, Richard Brake, Christine Adams, Jack Gleeson
PRODUCTORA: Coproducción USA-Reino Unido Warner Bros. Pictures
GÉNERO: Thriller. Acción. Drama. Fantástico | Superhéroes. Cómic. DC Comics
http://www.imdb.com/title/tt0372784/

PREMIOS: 2005: Nominada al Oscar: Mejor fotografía
2005: Nominada Premios BAFTA: Mejores efectos visuales, montaje y sonido
2005: Nominada a los Premios Razzie: peor actriz secundaria (Katie Holmes)






Nueva adaptación del famoso cómic. Narra los orígenes de la leyenda de Batman y los motivos que lo convirtieron en el representante del Bien en la ciudad de Gotham. Bruce Wayne vive obsesionado con el recuerdo de sus padres, muertos a tiros en su presencia. Atormentado por el dolor, se va de Gotham y recorre el mundo hasta que encuentra a un extraño personaje que lo adiestra en todas las disciplinas físicas y mentales que le servirán para combatir el Mal. Por esta razón, la Liga de las Sombras, una poderosa y subversiva sociedad secreta, dirigida por el enigmático Ra's Al Ghul, intenta reclutarlo. Cuando Bruce vuelve a Gotham, la ciudad está dominada por el crimen y la corrupción. Con la ayuda de su leal mayordomo Alfred, del detective de la policía Jim Gordon y de Lucius Fox, su aliado en la sociedad Ciencias Aplicadas de Wayne Enterprises, Wayne libera a su imponente alter ego: Batman, un justiciero enmascarado que utiliza la fuerza, la inteligencia y un despliegue de artefactos de alta tecnología para luchar contra las siniestras fuerzas que amenazan con destruir la ciudad.
























La pelicula NO tiene ninguna marca... solo colocamos el nombre de esta web en las capturas






Código:
General
Format                           : Matroska
Format version                   : Version 2
File size                        : 3.93 GiB
Duration                         : 2h 20mn
Overall bit rate                 : 4 016 Kbps
Movie name                       : www.club-hd.com
Encoded date                     : UTC 2012-11-14 01:45:51
Writing application              : mkvmerge v5.7.0 ('The Whirlwind') built on Jul  8 2012 20:08:51
Writing library                  : libebml v1.2.3 + libmatroska v1.3.0

Video
ID                               : 1
Format                           : AVC
Format/Info                      : Advanced Video Codec
Format profile                   : High@L4.1
Format settings, CABAC           : Yes
Format settings, ReFrames        : 10 frames
Codec ID                         : V_MPEG4/ISO/AVC
Duration                         : 2h 20mn
Bit rate                         : 2 735 Kbps
Width                            : 1 280 pixels
Height                           : 534 pixels
Display aspect ratio             : 2.40:1
Frame rate                       : 23.976 fps
Color space                      : YUV
Chroma subsampling               : 4:2:0
Bit depth                        : 8 bits
Scan type                        : Progressive
Bits/(Pixel*Frame)               : 0.167
Stream size                      : 2.60 GiB (66%)
Title                            : www.club-hd.com
Writing library                  : x264 core 119 r2106 07efeb4
Language                         : English
Default                          : Yes
Forced                           : No

Audio #1
ID                               : 2
Format                           : AC-3
Format/Info                      : Audio Coding 3
Mode extension                   : CM (complete main)
Codec ID                         : A_AC3
Duration                         : 2h 20mn
Bit rate mode                    : Constant
Bit rate                         : 640 Kbps
Channel(s)                       : 6 channels
Channel positions                : Front: L C R, Side: L R, LFE
Sampling rate                    : 48.0 KHz
Bit depth                        : 16 bits
Compression mode                 : Lossy
Stream size                      : 641 MiB (16%)
Title                            : www.club-hd.com  >>  Latino
Language                         : Spanish
Default                          : Yes
Forced                           : No

Audio #2
ID                               : 3
Format                           : AC-3
Format/Info                      : Audio Coding 3
Mode extension                   : CM (complete main)
Codec ID                         : A_AC3
Duration                         : 2h 20mn
Bit rate mode                    : Constant
Bit rate                         : 640 Kbps
Channel(s)                       : 6 channels
Channel positions                : Front: L C R, Side: L R, LFE
Sampling rate                    : 48.0 KHz
Bit depth                        : 16 bits
Compression mode                 : Lossy
Stream size                      : 641 MiB (16%)
Title                            : www.club-hd.com  >>  Inglés
Language                         : English
Default                          : No
Forced                           : No

Text #1
ID                               : 4
Format                           : UTF-8
Codec ID                         : S_TEXT/UTF8
Codec ID/Info                    : UTF-8 Plain Text
Language                         : Spanish
Default                          : No
Forced                           : No

Text #2
ID                               : 5
Format                           : UTF-8
Codec ID                         : S_TEXT/UTF8
Codec ID/Info                    : UTF-8 Plain Text
Language                         : English
Default                          : No
Forced                           : No

Menu
00:00:00.000                     : en:You're Practice
00:03:39.219                     : en:More Than Just a Man
00:07:31.117                     : en:What Do You Fear?
00:11:34.027                     : en:Tragedy
00:16:15.641                     : en:The Will to Act
00:19:44.350                     : en:This House
00:24:19.291                     : en:Not One of Your Good People
00:28:24.703                     : en:Carmine Falcone
00:31:25.383                     : en:Embrace Your Fear
00:35:53.818                     : en:Gotham Must Be Destroyed
00:38:24.636                     : en:Monastery Mayhem
00:41:14.639                     : en:Incorruptible Symbol
00:43:08.252                     : en:Nest of Bats
00:46:57.982                     : en:Welcome Home
00:49:43.981                     : en:Applied Sciences
00:53:26.203                     : en:Gordon's Visitor
00:55:55.018                     : en:Does It Come in Black?
00:58:02.145                     : en:Secrets of Scary People
01:03:31.808                     : en:Rattle the Cages
01:05:53.116                     : en:Missing Weapon
01:08:38.781                     : en:More Inside
01:11:25.781                     : en:Crane's Mask
01:13:19.562                     : en:Do I Look Like a Cop?
01:16:16.238                     : en:Lighten Up
01:19:50.285                     : en:Work to Do
01:23:54.363                     : en:Arkham's Basement Secrets
01:29:02.671                     : en:Winged Backup
01:32:36.718                     : en:Tumbler on the Roof
01:37:49.030                     : en:The Monster of Yours
01:40:33.694                     : en:Dual Identities
01:45:08.969                     : en:Purging Fire
01:49:32.065                     : en:Inferno Rescue
01:51:29.182                     : en:Spread the Word: Panic
01:54:49.049                     : en:What Defines Me
01:58:11.084                     : en:Catching a Train
02:01:54.974                     : en:Not Kill But Not Save
02:05:01.160                     : en:New Owner
02:06:06.893                     : en:This Is Your Mask
02:09:18.417                     : en:Calling Card
02:10:57.016                     : en:End Credits










Enlaces de Mega y Fireload solo disponibles para Miembros VIP

Compra tu Membresía VIP y apoya a Club-HD!

ATENCIÓN! Tenemos TODO el material de Club-HD disponible por Mega y Fireload, enlaces 100% activos y online hasta la fecha

Llévate tus cuentas Mega PRO II gratis con tu membresía VIP!
Todos los posts vivos con links de Mega y Fireload.
Todo el material de Club-HD desbloqueado y sin publicidad.

Click Aquí para más información.




Enlaces de Mega y Fireload solo disponibles para Miembros VIP

Compra tu Membresía VIP y apoya a Club-HD!

ATENCIÓN! Tenemos TODO el material de Club-HD disponible por Mega y Fireload, enlaces 100% activos y online hasta la fecha

Llévate tus cuentas Mega PRO II gratis con tu membresía VIP!
Todos los posts vivos con links de Mega y Fireload.
Todo el material de Club-HD desbloqueado y sin publicidad.

Click Aquí para más información.


Para ver este contenido oculto, debes dar click en una de las siguientes reacciones : Like Like, Love Love, Haha Haha, Wow Wow, Sad Sad, Angry Angry

 
Última edición:

Master_jfl

New member
Registro
27 Ago 2012
Mensajes
275
Reacciones
27
Puntos
0
Edad
33

Reputation:

esta es la mía gracias, esperando the dark knight espero que sea pronto
 

LEDOPU

New member
Registro
28 Ago 2012
Mensajes
107
Reacciones
27
Puntos
0

Reputation:

..GENIAL HERMANO...¡¡¡
:dplgar:
...SERA QUE SE VIENE LA TRILOGIA COMPLETA...??

...ESPERANDO EL RESTO.......GRACIASSSS
 
Última edición:

Pedrum

The Buckminster
Registro
28 Ago 2012
Mensajes
1.092
Reacciones
1.546
Puntos
113
Ubicación
Bahia Blanca

Reputation:

mmmm...presiento que se esta por venir....mientras tanto me voy llevando las anteriores y me pongo on line con la zaga para el gran estreno. :dplgar:
Muchas gracias Revolver! victory
 

NachoBasualdo

New member
Registro
28 Oct 2012
Mensajes
40
Reacciones
0
Puntos
0

Reputation:

Me bajo la saga completa... Para ver de lleno The Dark Knight Rises con toda la emoción :D gracias
 

Usuarios Que Están Viendo Este Tema (Total: 1, Miembros: 0, Invitados: 1)

Arriba