Batman Forever (1995) 1080p BDRip Dual Latino-Inglés [Subt. Esp] (Ciencia ficción. Fantástico. Acción)

Maestro Revolver

Well-known member
Miembro del Staff
Administrador
Registro
9 Ago 2012
Mensajes
3.567








TÍTULO ORIGINAL: Batman Forever
AÑO: 1995
DURACIÓN: 120 min.
PAÍS: USA
DIRECTOR: Joel Schumacher
GUIÓN: Lee Batchler, Janet Scott Batchler, Akiva Goldsman (Cómic: Bob Kane)
REPARTO: Val Kilmer, Nicole Kidman, Chris O'Donnell, Tommy Lee Jones, Jim Carrey, Debi Mazar, Michael Gough, Pat Hingle, Don 'The Dragon' Wilson, Drew Barrymore, Jon Favreau
PRODUCTORA: Warner Bros. Pictures
GÉNERO: Ciencia ficción. Fantástico. Acción | Superhéroes. Cómic. DC Comics. Secuela
: http://www.imdb.com/title/tt0112462/


Premios: 1995: 3 nominaciones al Oscar: Mejor fotografía, efectos de sonido, sonido
1995: Nominada al Globo de Oro: Mejor canción original
1995: Nominada a los Premios Razzie: Peor canción original






La ciudad de Gotham está amenazada por un hombre que intenta vengarse de la Humanidad; su rostro está desfigurado por el ácido y se hace llamar El Caras. Por otra parte, un psicópata con intención de dominar el mundo ha inventado un estrafalario aparato que permite absorber las ondas cerebrales de los seres humanos. Ambos se unirán para lograr sus propósitos.
























La pelicula NO tiene ninguna marca... solo colocamos el nombre de esta web en las capturas






Código:
General
Format                                   : Matroska
Format version                           : Version 2
File size                                : 8.22 GiB
Duration                                 : 2h 1mn
Overall bit rate                         : 9 675 Kbps
Movie name                               : www.club-hd.com
Encoded date                             : UTC 2013-04-19 03:57:05
Writing application                      : mkvmerge v5.7.0 ('The Whirlwind') built on Jul  8 2012 20:08:51
Writing library                          : libebml v1.2.3 + libmatroska v1.3.0

Video
ID                                       : 1
Format                                   : AVC
Format/Info                              : Advanced Video Codec
Format profile                           : High@L4.1
Format settings, CABAC                   : Yes
Format settings, ReFrames                : 4 frames
Codec ID                                 : V_MPEG4/ISO/AVC
Duration                                 : 2h 1mn
Bit rate                                 : 8 714 Kbps
Width                                    : 1 920 pixels
Height                                   : 1 080 pixels
Display aspect ratio                     : 16:9
Frame rate mode                          : Constant
Frame rate                               : 23.976 fps
Color space                              : YUV
Chroma subsampling                       : 4:2:0
Bit depth                                : 8 bits
Scan type                                : Progressive
Bits/(Pixel*Frame)                       : 0.175
Stream size                              : 7.24 GiB (88%)
Title                                    : www.club-hd.com
Writing library                          : x264 core 66 r1088M 71ac0a3
Language                                 : English
Default                                  : Yes
Forced                                   : No

Audio #1
ID                                       : 2
Format                                   : AC-3
Format/Info                              : Audio Coding 3
Mode extension                           : CM (complete main)
Format settings, Endianness              : Big
Codec ID                                 : A_AC3
Duration                                 : 2h 1mn
Bit rate mode                            : Constant
Bit rate                                 : 320 Kbps
Channel(s)                               : 6 channels
Channel positions                        : Front: L C R, Side: L R, LFE
Sampling rate                            : 44.1 KHz
Bit depth                                : 16 bits
Compression mode                         : Lossy
Delay relative to video                  : 200ms
Stream size                              : 278 MiB (3%)
Title                                    : www.club-hd.com  >>  Latino
Language                                 : Spanish
Default                                  : Yes
Forced                                   : No

Audio #2
ID                                       : 3
Format                                   : AC-3
Format/Info                              : Audio Coding 3
Mode extension                           : CM (complete main)
Format settings, Endianness              : Big
Codec ID                                 : A_AC3
Duration                                 : 2h 1mn
Bit rate mode                            : Constant
Bit rate                                 : 640 Kbps
Channel(s)                               : 6 channels
Channel positions                        : Front: L C R, Side: L R, LFE
Sampling rate                            : 48.0 KHz
Bit depth                                : 16 bits
Compression mode                         : Lossy
Stream size                              : 557 MiB (7%)
Title                                    : www.club-hd.com  >>  Inglés
Language                                 : English
Default                                  : No
Forced                                   : No

Text
ID                                       : 4
Format                                   : UTF-8
Codec ID                                 : S_TEXT/UTF8
Codec ID/Info                            : UTF-8 Plain Text
Language                                 : Spanish
Default                                  : No
Forced                                   : No







Código:
www.club-hd.com







Todos los links son Intercambiables!



Enlaces de Mega y Google Drive solo disponibles para Miembros VIP

Compra tu Membresía VIP y apoya a Club-HD!

ATENCIÓN! Tenemos TODO el material de Club-HD disponible por Mega y Google Drive, enlaces 100% activos y online hasta la fecha

Llévate tus cuentas Mega PRO III gratis con tu membresía VIP!
Todos los posts vivos con links de Mega y Google Drive.
Todo el material de Club-HD desbloqueado y sin publicidad.

Click Aquí para más información.



Enlaces de Mega y Google Drive solo disponibles para Miembros VIP

Compra tu Membresía VIP y apoya a Club-HD!

ATENCIÓN! Tenemos TODO el material de Club-HD disponible por Mega y Google Drive, enlaces 100% activos y online hasta la fecha

Llévate tus cuentas Mega PRO III gratis con tu membresía VIP!
Todos los posts vivos con links de Mega y Google Drive.
Todo el material de Club-HD desbloqueado y sin publicidad.

Click Aquí para más información.



Para ver este contenido oculto, debes dar click en una de las siguientes reacciones : Like Like, Love Love, Haha Haha, Wow Wow, Sad Sad, Angry Angry



Para ver este contenido oculto, debes dar click en una de las siguientes reacciones : Like Like, Love Love, Haha Haha, Wow Wow, Sad Sad, Angry Angry
 
Última edición por un moderador:

sharklui

Well-known member
Miembro VIP
Registro
28 Ago 2012
Mensajes
1.026
Ubicación
The Matrix
Revol, excelente aporte el que estas haciendo con esta saga:aplausos:, como siempre trayendonos lo mejor, muchas gracias por todo el tiempo que dedicas para mantener esta comunidad siempre a la expectativa de que sorpresa traeras:dplgar:, eres el mejor !!!:aplausos:
 

edward1080

Well-known member
Registro
23 Nov 2012
Mensajes
1.013
Edad
35
Grande Rovolver!! Excelente trabajo para esta saga y con la mejor calidad que los caracteriza!!, Muchas gracias! :aplausos:
 

Usuarios Que Están Viendo Este Tema (Total: 1, Miembros: 0, Invitados: 1)

Quién Leyó Este Tema (Total Miembros: 4)

Arriba