Batman Returns (1992) m-720p Dual Latino-Inglés [Subt. Esp] (Fantástico. Thriller. Acción)

Maestro Revolver

Well-known member
Miembro del Staff
Administrador
Registro
9 Ago 2012
Mensajes
3.569
Reacciones
59.364
Puntos
113

Reputation:









TÍTULO ORIGINAL: Batman Returns
AÑO: 1992
DURACIÓN: 130 min.
PAÍS: USA
DIRECTOR: Tim Burton
GUIÓN: Daniel Waters (Historia: Daniel Waters, Sam Hamm. Cómic: Bob Kane)
REPARTO: Michael Keaton, Danny DeVito, Michelle Pfeiffer, Christopher Walken, Michael Gough, Michael Murphy, Cristi Conaway, Andrew Bryniarski, Pat Hingle, Vincent Schiavelli, Doug Jones
PRODUCTORA: Coproducción EEUU-Reino Unido; Warner Bros. Pictures / PolyGram Filmed Entertainment
GÉNERO: Fantástico. Thriller. Acción | Superhéroes. Cómic. DC Comics. Secuela
: http://www.imdb.com/title/tt0103776/

Premios: 1992: 2 nominaciones al Oscar: Mejor maquillaje, efectos visuales
1992: 2 nominaciones BAFTA: Mejor maquillaje y efectos especiales visuales
1992: Nominada a los Premios Razzie: Peor actor secundario (Danny DeVito)







Gotham City se enfrenta a dos nuevos y peculiares criminales: el diabólico y siniestro Pingüino, una criatura solitaria y extrañamente deformada, y la hermosa y seductora -aunque letalmente peligrosa- Catwoman. Batman se deberá enfrentar a Pingüino, que quiere convertirse en el amo de la ciudad.
























La pelicula NO tiene ninguna marca... solo colocamos el nombre de esta web en las capturas






Código:
General
Format                                   : Matroska
Format version                           : Version 2
File size                                : 3.32 GiB
Duration                                 : 2h 6mn
Overall bit rate                         : 3 755 Kbps
Movie name                               : www.club-hd.com
Encoded date                             : UTC 2013-04-18 15:50:10
Writing application                      : mkvmerge v5.7.0 ('The Whirlwind') built on Jul  8 2012 20:08:51
Writing library                          : libebml v1.2.3 + libmatroska v1.3.0

Video
ID                                       : 1
Format                                   : AVC
Format/Info                              : Advanced Video Codec
Format profile                           : High@L4.1
Format settings, CABAC                   : Yes
Format settings, ReFrames                : 8 frames
Codec ID                                 : V_MPEG4/ISO/AVC
Duration                                 : 2h 6mn
Bit rate                                 : 3 000 Kbps
Width                                    : 1 280 pixels
Height                                   : 720 pixels
Display aspect ratio                     : 16:9
Original display aspect ratio            : 16:9
Frame rate mode                          : Constant
Frame rate                               : 23.976 fps
Color space                              : YUV
Chroma subsampling                       : 4:2:0
Bit depth                                : 8 bits
Scan type                                : Progressive
Bits/(Pixel*Frame)                       : 0.136
Stream size                              : 2.57 GiB (78%)
Title                                    : www.club-hd.com
Writing library                          : x264 core 120
Language                                 : English
Default                                  : Yes
Forced                                   : No
Color primaries                          : BT.709
Transfer characteristics                 : BT.709
Matrix coefficients                      : BT.709

Audio #1
ID                                       : 2
Format                                   : AC-3
Format/Info                              : Audio Coding 3
Mode extension                           : CM (complete main)
Format settings, Endianness              : Big
Codec ID                                 : A_AC3
Duration                                 : 2h 6mn
Bit rate mode                            : Constant
Bit rate                                 : 320 Kbps
Channel(s)                               : 6 channels
Channel positions                        : Front: L C R, Side: L R, LFE
Sampling rate                            : 44.1 KHz
Bit depth                                : 16 bits
Compression mode                         : Lossy
Stream size                              : 290 MiB (9%)
Title                                    : www.club-hd.com  >>  Latino
Language                                 : Spanish
Default                                  : Yes
Forced                                   : No

Audio #2
ID                                       : 3
Format                                   : AC-3
Format/Info                              : Audio Coding 3
Mode extension                           : CM (complete main)
Format settings, Endianness              : Big
Codec ID                                 : A_AC3
Duration                                 : 2h 6mn
Bit rate mode                            : Constant
Bit rate                                 : 448 Kbps
Channel(s)                               : 6 channels
Channel positions                        : Front: L C R, Side: L R, LFE
Sampling rate                            : 48.0 KHz
Bit depth                                : 16 bits
Compression mode                         : Lossy
Stream size                              : 405 MiB (12%)
Title                                    : www.club-hd.com  >>  Inglés
Language                                 : English
Default                                  : No
Forced                                   : No

Text
ID                                       : 4
Format                                   : UTF-8
Codec ID                                 : S_TEXT/UTF8
Codec ID/Info                            : UTF-8 Plain Text
Language                                 : Spanish
Default                                  : No
Forced                                   : No








Enlaces de Mega y Fireload solo disponibles para Miembros VIP

Compra tu Membresía VIP y apoya a Club-HD!

ATENCIÓN! Tenemos TODO el material de Club-HD disponible por Mega y Fireload, enlaces 100% activos y online hasta la fecha

Llévate tus cuentas Mega PRO II gratis con tu membresía VIP!
Todos los posts vivos con links de Mega y Fireload.
Todo el material de Club-HD desbloqueado y sin publicidad.

Click Aquí para más información.



Para ver este contenido oculto, debes dar click en una de las siguientes reacciones : Like Like, Love Love, Haha Haha, Wow Wow, Sad Sad, Angry Angry

 
Última edición por un moderador:

Bankai

Active member
Uploader
Colaborador
Registro
28 Ago 2012
Mensajes
733
Reacciones
48
Puntos
28

Reputation:

gracias gran clasico
 

edward1080

Well-known member
Registro
23 Nov 2012
Mensajes
1.013
Reacciones
137
Puntos
63
Edad
34

Reputation:

Genial máster, un clásico la vi hace mucho tiempo y ahora la volveré a disfrutar en la mejor calidad, muchas Gracias Club HD!! :aplausos:
 

elgabon

New member
Registro
27 Ago 2012
Mensajes
121
Reacciones
3
Puntos
0
Edad
41

Reputation:

excelente vamos por toda la saga!
Gracias!
 

Usuarios Que Están Viendo Este Tema (Total: 1, Miembros: 0, Invitados: 1)

Arriba