Battle of the Damned (2013) 720p BDRip Audio Inglés [Subt. Esp] (Ciencia ficción. Terror. Acción)

Maestro Revolver

Well-known member
Miembro del Staff
Administrador
Registro
9 Ago 2012
Mensajes
3.567








TÍTULO ORIGINAL: Battle of the Damned
AÑO: 2013
DURACIÓN: 84 min.
PAÍS: Singapur
DIRECTOR: Christopher Hatton
GUIÓN: Christopher Hatton
REPARTO: Dolph Lundgren, Matt Doran, Esteban Cueto, David Field, Lydia Look, Jen Sung, Melanie Zanetti, Jeff Pruitt, Broadus Mattison, Kerry Wong, Oda Maria
PRODUCTORA: Coproducción EEUU-Singapur; Boku Films / Compound B
GÉNERO: Ciencia ficción. Terror. Acción | Pandemias. Robots. Zombis
: http://www.imdb.com/title/tt2210463/






Nos encontramos en el futuro, lejos de la civilización, en un planeta donde un puñado de supervivientes sobrevive con un pequeño arsenal de armas contra los infectados. Todo fue debido a un fallo de seguridad que provocó un estallido vírico que dejo centenares de muertos o mutados que acechan a los que quedan vivos. Encabezados por Max Gatling (Lundgren), nuestros héroes aprenderán a luchar contra los infectados con la esperanza de un rescate que venga desde el exterior. Lo que no se esperan es que aparezca otra amenaza aun mayor. El fallo de seguridad también ha dejado escapar a un grupo de prototipos de robot en mal funcionamiento. Armados e increíblemente peligrosos, los robots pueden ser un peligro mortal… o un inesperado aliado en su lucha contra los infectados.
























La pelicula NO tiene ninguna marca... solo colocamos el nombre de esta web en las capturas






Código:
General
Format                                   : Matroska
Format version                           : Version 2
File size                                : 4.17 GiB
Duration                                 : 1h 28mn
Overall bit rate                         : 6 740 Kbps
Movie name                               : www.club-hd.com
Encoded date                             : UTC 2013-08-16 22:40:02
Writing application                      : mkvmerge v5.7.0 ('The Whirlwind') built on Jul  8 2012 20:08:51
Writing library                          : libebml v1.2.3 + libmatroska v1.3.0

Video
ID                                       : 1
Format                                   : AVC
Format/Info                              : Advanced Video Codec
Format profile                           : High@L4.1
Format settings, CABAC                   : Yes
Format settings, ReFrames                : 5 frames
Codec ID                                 : V_MPEG4/ISO/AVC
Duration                                 : 1h 28mn
Bit rate                                 : 6 292 Kbps
Width                                    : 1 280 pixels
Height                                   : 720 pixels
Display aspect ratio                     : 16:9
Frame rate mode                          : Constant
Frame rate                               : 23.976 fps
Color space                              : YUV
Chroma subsampling                       : 4:2:0
Bit depth                                : 8 bits
Scan type                                : Progressive
Bits/(Pixel*Frame)                       : 0.285
Stream size                              : 3.81 GiB (91%)
Title                                    : www.club-hd.com
Writing library                          : x264 core 133 r2334 a3ac64b
Language                                 : English
Default                                  : Yes
Forced                                   : No

Audio
ID                                       : 2
Format                                   : AC-3
Format/Info                              : Audio Coding 3
Mode extension                           : CM (complete main)
Format settings, Endianness              : Big
Codec ID                                 : A_AC3
Duration                                 : 1h 28mn
Bit rate mode                            : Constant
Bit rate                                 : 448 Kbps
Channel(s)                               : 6 channels
Channel positions                        : Front: L C R, Side: L R, LFE
Sampling rate                            : 48.0 KHz
Bit depth                                : 16 bits
Compression mode                         : Lossy
Stream size                              : 284 MiB (7%)
Title                                    : www.club-hd.com
Language                                 : English
Default                                  : Yes
Forced                                   : No

Text
ID                                       : 3
Format                                   : UTF-8
Codec ID                                 : S_TEXT/UTF8
Codec ID/Info                            : UTF-8 Plain Text
Title                                    : www.club-hd.com
Language                                 : Spanish
Default                                  : Yes
Forced                                   : No








Enlaces de Mega y Google Drive solo disponibles para Miembros VIP

Compra tu Membresía VIP y apoya a Club-HD!

ATENCIÓN! Tenemos TODO el material de Club-HD disponible por Mega y Google Drive, enlaces 100% activos y online hasta la fecha

Llévate tus cuentas Mega PRO III gratis con tu membresía VIP!
Todos los posts vivos con links de Mega y Google Drive.
Todo el material de Club-HD desbloqueado y sin publicidad.

Click Aquí para más información.


Para ver este contenido oculto, debes dar click en una de las siguientes reacciones : Like Like, Love Love, Haha Haha, Wow Wow, Sad Sad, Angry Angry



 
Última edición por un moderador:

AleMan80

New member
Registro
30 Ago 2012
Mensajes
1.123
Ubicación
Buenos Aires
Muy interesante Revolver Tb_up3
Pero prefiero esperar a ver si se viene en latino.
Después de todo con la velocidad con que publicas las películas no tengo tiempo de descargarlas y verlas, por lo que tengo unas cuantas películas para entretenerme

MUCHISIMAS GRACIAS POR TODO sin duda es un gran honor el poder pertenecer a este Gran Club
 

cripp

Well-known member
Registro
27 Ago 2012
Mensajes
10.594
Se ve buena la película, vamos a ver que tal esta, se agradece el aporte, a descargar...
 

Usuarios Que Están Viendo Este Tema (Total: 1, Miembros: 0, Invitados: 1)

Quién Leyó Este Tema (Total Miembros: 2)

Arriba