Battlestar Galactica (Miniserie de TV) (2003) 1080p AMZN WEB-DL Dual Latino-Inglés [Subt.Esp] (Drama, Ciencia ficción)

Peacemaker

Well-known member
Miembro del Staff
Uploader
Registro
17 May 2018
Mensajes
1.504
Edad
32

Rep:






Las colonias humanas en un sistema solar lejano son casi aniquiladas por un ataque nuclear lanzado por una agresiva inteligencia artificial. Los supervivientes del ataque nuclear evaden a los Cylons en una ecléctica flota de Battlestar, y comienzan la búsqueda de un nuevo hogar, un planeta llamado Tierra.


MEDIAINFO
Código:
Format                      : Matroska
Format version              : Version 4
File size                   : 6.97 GiB
Duration                    : 1 h 34 min
Overall bit rate            : 10.5 Mb/s
Encoded date                : UTC 2022-01-23 01:15:05
Writing application         : mkvmerge v58.0.0 ('Supper's Ready') 32-bit
Writing library             : libebml v1.4.2 + libmatroska v1.6.4

Video
ID                          : 1
Format                      : AVC
Format/Info                 : Advanced Video Codec
Format profile              : High@L4
Format settings             : CABAC / 4 Ref Frames
Format settings, CABAC      : Yes
Format settings, Reference  : 4 frames
Codec ID                    : V_MPEG4/ISO/AVC
Duration                    : 1 h 34 min
Bit rate mode               : Constant
Bit rate                    : 10 000 kb/s
Width                       : 1 920 pixels
Height                      : 1 080 pixels
Display aspect ratio        : 16:9
Frame rate mode             : Constant
Frame rate                  : 23.976 (24000/1001) FPS
Color space                 : YUV
Chroma subsampling          : 4:2:0
Bit depth                   : 8 bits
Scan type                   : Progressive
Bits/(Pixel*Frame)          : 0.201
Stream size                 : 6.40 GiB (92%)
Default                     : Yes
Forced                      : No
Color range                 : Limited
Color primaries             : BT.709
Transfer characteristics    : BT.709
Matrix coefficients         : BT.709

Audio #1
ID                          : 2
Format                      : E-AC-3
Format/Info                 : Enhanced AC-3
Commercial name             : Dolby Digital Plus
Codec ID                    : A_EAC3
Duration                    : 1 h 34 min
Bit rate mode               : Constant
Bit rate                    : 224 kb/s
Channel(s)                  : 2 channels
Channel layout              : L R
Sampling rate               : 48.0 kHz
Frame rate                  : 31.250 FPS (1536 SPF)
Compression mode            : Lossy
Stream size                 : 152 MiB (2%)
Title                       : Spanish
Language                    : Spanish
Service kind                : Complete Main
Default                     : Yes
Forced                      : No

Audio #2
ID                          : 3
Format                      : E-AC-3
Format/Info                 : Enhanced AC-3
Commercial name             : Dolby Digital Plus
Codec ID                    : A_EAC3
Duration                    : 1 h 34 min
Bit rate mode               : Constant
Bit rate                    : 640 kb/s
Channel(s)                  : 6 channels
Channel layout              : L R C LFE Ls Rs
Sampling rate               : 48.0 kHz
Frame rate                  : 31.250 FPS (1536 SPF)
Compression mode            : Lossy
Stream size                 : 434 MiB (6%)
Title                       : English
Language                    : English
Service kind                : Complete Main
Default                     : No
Forced                      : No

Text #1
ID                          : 4
Format                      : UTF-8
Codec ID                    : S_TEXT/UTF8
Codec ID/Info               : UTF-8 Plain Text
Duration                    : 1 h 32 min
Bit rate                    : 62 b/s
Count of elements           : 1087
Stream size                 : 42.7 KiB (0%)
Title                       : Spanish [Full]
Language                    : Spanish
Default                     : No
Forced                      : No

Text #2
ID                          : 5
Format                      : UTF-8
Codec ID                    : S_TEXT/UTF8
Codec ID/Info               : UTF-8 Plain Text
Duration                    : 1 h 32 min
Bit rate                    : 62 b/s
Count of elements           : 1087
Stream size                 : 42.8 KiB (0%)
Title                       : Castilian [Full]
Language                    : Spanish
Default                     : No
Forced                      : No

Text #3
ID                          : 6
Format                      : UTF-8
Codec ID                    : S_TEXT/UTF8
Codec ID/Info               : UTF-8 Plain Text
Duration                    : 1 h 30 min
Bit rate                    : 69 b/s
Count of elements           : 1289
Stream size                 : 46.0 KiB (0%)
Title                       : English [SDH]
Language                    : English
Default                     : No
Forced                      : No

Text #4
ID                          : 7
Format                      : UTF-8
Codec ID                    : S_TEXT/UTF8
Codec ID/Info               : UTF-8 Plain Text
Duration                    : 1 h 32 min
Bit rate                    : 52 b/s
Count of elements           : 1080
Stream size                 : 35.9 KiB (0%)
Title                       : French [Full]
Language                    : French
Default                     : No
Forced                      : No

Text #5
ID                          : 8
Format                      : UTF-8
Codec ID                    : S_TEXT/UTF8
Codec ID/Info               : UTF-8 Plain Text
Duration                    : 1 h 32 min
Bit rate                    : 64 b/s
Count of elements           : 1052
Stream size                 : 43.8 KiB (0%)
Title                       : Italian [Full]
Language                    : Italian
Default                     : No
Forced                      : No

Text #6
ID                          : 9
Format                      : UTF-8
Codec ID                    : S_TEXT/UTF8
Codec ID/Info               : UTF-8 Plain Text
Duration                    : 1 h 32 min
Bit rate                    : 64 b/s
Count of elements           : 1216
Stream size                 : 43.6 KiB (0%)
Title                       : Portuguese [Full]
Language                    : Portuguese
Default                     : No
Forced                      : No

Text #7
ID                          : 10
Format                      : UTF-8
Codec ID                    : S_TEXT/UTF8
Codec ID/Info               : UTF-8 Plain Text
Duration                    : 1 h 33 min
Bit rate                    : 61 b/s
Count of elements           : 1077
Stream size                 : 42.0 KiB (0%)
Title                       : Brazilian Portuguese [Full]
Language                    : Portuguese
Default                     : No
Forced                      : No

Text #8
ID                          : 11
Format                      : UTF-8
Codec ID                    : S_TEXT/UTF8
Codec ID/Info               : UTF-8 Plain Text
Duration                    : 1 h 33 min
Bit rate                    : 58 b/s
Count of elements           : 1050
Stream size                 : 40.1 KiB (0%)
Title                       : Polish [Full]
Language                    : Polish
Default                     : No
Forced                      : No

Text #9
ID                          : 12
Format                      : UTF-8
Codec ID                    : S_TEXT/UTF8
Codec ID/Info               : UTF-8 Plain Text
Duration                    : 1 h 32 min
Bit rate                    : 61 b/s
Count of elements           : 1081
Stream size                 : 41.9 KiB (0%)
Title                       : Turkish [Full]
Language                    : Turkish
Default                     : No
Forced                      : No

Text #10
ID                          : 13
Format                      : UTF-8
Codec ID                    : S_TEXT/UTF8
Codec ID/Info               : UTF-8 Plain Text
Duration                    : 1 h 32 min
Bit rate                    : 53 b/s
Count of elements           : 1048
Stream size                 : 36.1 KiB (0%)
Title                       : Swedish [Full]
Language                    : Swedish
Default                     : No
Forced                      : No

Text #11
ID                          : 14
Format                      : UTF-8
Codec ID                    : S_TEXT/UTF8
Codec ID/Info               : UTF-8 Plain Text
Duration                    : 1 h 32 min
Bit rate                    : 55 b/s
Count of elements           : 980
Stream size                 : 37.8 KiB (0%)
Title                       : Danish [Full]
Language                    : Danish
Default                     : No
Forced                      : No

Text #12
ID                          : 15
Format                      : UTF-8
Codec ID                    : S_TEXT/UTF8
Codec ID/Info               : UTF-8 Plain Text
Duration                    : 1 h 32 min
Bit rate                    : 60 b/s
Count of elements           : 1082
Stream size                 : 41.1 KiB (0%)
Title                       : Finnish [Full]
Language                    : Finnish
Default                     : No
Forced                      : No

Text #13
ID                          : 16
Format                      : UTF-8
Codec ID                    : S_TEXT/UTF8
Codec ID/Info               : UTF-8 Plain Text
Duration                    : 1 h 32 min
Bit rate                    : 55 b/s
Count of elements           : 985
Stream size                 : 38.0 KiB (0%)
Title                       : Dutch [Full]
Language                    : Dutch
Default                     : No
Forced                      : No

Text #14
ID                          : 17
Format                      : UTF-8
Codec ID                    : S_TEXT/UTF8
Codec ID/Info               : UTF-8 Plain Text
Duration                    : 1 h 32 min
Bit rate                    : 90 b/s
Count of elements           : 1085
Stream size                 : 61.8 KiB (0%)
Title                       : Arabic [Full]
Language                    : Arabic
Default                     : No
Forced                      : No

Text #15
ID                          : 18
Format                      : UTF-8
Codec ID                    : S_TEXT/UTF8
Codec ID/Info               : UTF-8 Plain Text
Duration                    : 1 h 32 min
Bit rate                    : 57 b/s
Count of elements           : 1083
Stream size                 : 39.1 KiB (0%)
Title                       : Indonesian [Full]
Language                    : Indonesian
Default                     : No
Forced                      : No

Text #16
ID                          : 19
Format                      : UTF-8
Codec ID                    : S_TEXT/UTF8
Codec ID/Info               : UTF-8 Plain Text
Duration                    : 1 h 32 min
Bit rate                    : 67 b/s
Count of elements           : 1126
Stream size                 : 45.9 KiB (0%)
Title                       : Korean [Full]
Language                    : Korean
Default                     : No
Forced                      : No

Text #17
ID                          : 20
Format                      : UTF-8
Codec ID                    : S_TEXT/UTF8
Codec ID/Info               : UTF-8 Plain Text
Duration                    : 1 h 32 min
Bit rate                    : 52 b/s
Count of elements           : 1091
Stream size                 : 35.8 KiB (0%)
Title                       : Chinese (Simplified) [Full]
Language                    : Chinese
Default                     : No
Forced                      : No

Text #18
ID                          : 21
Format                      : UTF-8
Codec ID                    : S_TEXT/UTF8
Codec ID/Info               : UTF-8 Plain Text
Duration                    : 1 h 32 min
Bit rate                    : 48 b/s
Count of elements           : 1052
Stream size                 : 33.2 KiB (0%)
Title                       : Chinese (Traditional) [Full]
Language                    : Chinese
Default                     : No
Forced                      : No

Menu
00:00:00.000                : Studio Logo
00:00:25.000                : Scene 2
00:04:54.000                : Title Sequence
00:05:04.000                : Scene 4
00:18:55.000                : Scene 5
00:32:09.000                : Scene 6
00:45:25.000                : Scene 7
00:46:22.000                : Scene 8
00:55:21.000                : Scene 9
01:04:32.000                : Scene 10
01:13:38.000                : Scene 11
01:33:45.000                : End Credits










Vídeo WEB-DL H264 1920x1080 (High@L4, AVC)
Formato de audio: EAC3 224 kb/s 2.0 (Español Mexicano) EAC3 640 kb/s 5.1 (Inglés)
Formato de subtítulos: SubRip (.srt)
Lista de subtítulos: Latino e inglés
Lista de audio: Latino e inglés
Fuente: Prime video





Enlaces de Mega y Fireload solo disponibles para Miembros VIP

Compra tu Membresía VIP y apoya a Club-HD!

ATENCIÓN! Tenemos TODO el material de Club-HD disponible por Mega y Fireload, enlaces 100% activos y online hasta la fecha

Llévate tus cuentas Mega PRO II gratis con tu membresía VIP!
Todos los posts vivos con links de Mega y Fireload.
Todo el material de Club-HD desbloqueado y sin publicidad.

Click Aquí para más información.


Para ver este contenido oculto, debes dar click en una de las siguientes reacciones : Like Like, Love Love, Haha Haha, Wow Wow, Sad Sad, Angry Angry
 

Usuarios Que Están Viendo Este Tema (Total: 1, Miembros: 0, Invitados: 1)

Quién Leyó Este Tema (Total Miembros: 1)

Arriba