Beasts of the Southern Wild (2012) m-720p Dual Latino-Inglés [Subt. Esp-Ing] (Drama)

Maestro Revolver

Well-known member
Miembro del Staff
Administrador
Registro
9 Ago 2012
Mensajes
3.569
Reacciones
59.354
Puntos
113

Reputation:









TÍTULO ORIGINAL: Beasts of the Southern Wild
AÑO: 2012
DURACIÓN: 91 min.
PAÍS: USA
DIRECTOR: Benh Zeitlin
GUIÓN: Benh Zeitlin, Lucy Alibar (Obra: Lucy Alibar)
REPARTO: Quvenzhané Wallis, Dwight Henry, Levy Easterly, Lowell Landes, Pamela Harper, Gina Montana, Nicholas Clark, Jovan Hathaway
PRODUCTORA: Cinereach / Court 13 production / Journeyman Pictures
GÉNERO: Drama | Infancia. Naturaleza. Cine independiente USA
: http://www.imdb.com/title/tt2125435/

PREMIOS: 2012: Festival de Sundance: Mejor película y mejor fotografía
2012: Festival de Cannes: Cámara de Oro y Premio FIPRESCI (sección "Un Certain Regard")
2012: Premios Gotham: Mejor nuevo director. 3 nominaciones
2012: Independent Spirit Awards: 5 nominaciones, incluyendo mejor película






Las aguas van a subir, los animales salvajes retornan de sus tumbas y en el sur todos los diques se hunden. Esta es la historia de una niña de seis años llamada Hushpuppy, que vive con su padre en el borde del mundo.
























La pelicula NO tiene ninguna marca... solo colocamos el nombre de esta web en las capturas






Código:
General
Format                                   : Matroska
Format version                           : Version 2
File size                                : 2.59 GiB
Duration                                 : 1h 33mn
Overall bit rate                         : 3 972 Kbps
Movie name                               : www.club-hd.com
Encoded date                             : UTC 2012-11-28 07:14:52
Writing application                      : mkvmerge v5.7.0 ('The Whirlwind') built on Jul  8 2012 20:08:51
Writing library                          : libebml v1.2.3 + libmatroska v1.3.0

Video
ID                                       : 1
Format                                   : AVC
Format/Info                              : Advanced Video Codec
Format profile                           : High@L4.1
Format settings, CABAC                   : Yes
Format settings, ReFrames                : 9 frames
Codec ID                                 : V_MPEG4/ISO/AVC
Duration                                 : 1h 33mn
Bit rate                                 : 2 890 Kbps
Width                                    : 1 280 pixels
Height                                   : 694 pixels
Display aspect ratio                     : 1.85:1
Frame rate mode                          : Constant
Frame rate                               : 23.976 fps
Color space                              : YUV
Chroma subsampling                       : 4:2:0
Bit depth                                : 8 bits
Scan type                                : Progressive
Bits/(Pixel*Frame)                       : 0.136
Stream size                              : 1.83 GiB (71%)
Title                                    : www.club-hd.com
Writing library                          : x264 core 129 r2230 1cffe9f
Language                                 : English
Default                                  : Yes
Forced                                   : No

Audio #1
ID                                       : 2
Format                                   : AC-3
Format/Info                              : Audio Coding 3
Mode extension                           : CM (complete main)
Format settings, Endianness              : Big
Codec ID                                 : A_AC3
Duration                                 : 1h 33mn
Bit rate mode                            : Constant
Bit rate                                 : 448 Kbps
Channel(s)                               : 6 channels
Channel positions                        : Front: L C R, Side: L R, LFE
Sampling rate                            : 48.0 KHz
Bit depth                                : 16 bits
Compression mode                         : Lossy
Stream size                              : 299 MiB (11%)
Title                                    : www.club-hd.com  >>  Latino
Language                                 : Spanish
Default                                  : Yes
Forced                                   : No

Audio #2
ID                                       : 3
Format                                   : AC-3
Format/Info                              : Audio Coding 3
Mode extension                           : CM (complete main)
Format settings, Endianness              : Big
Codec ID                                 : A_AC3
Duration                                 : 1h 33mn
Bit rate mode                            : Constant
Bit rate                                 : 640 Kbps
Channel(s)                               : 6 channels
Channel positions                        : Front: L C R, Side: L R, LFE
Sampling rate                            : 48.0 KHz
Bit depth                                : 16 bits
Compression mode                         : Lossy
Stream size                              : 427 MiB (16%)
Title                                    : www.club-hd.com  >>  Inglés
Language                                 : English
Default                                  : No
Forced                                   : No

Text #1
ID                                       : 4
Format                                   : UTF-8
Codec ID                                 : S_TEXT/UTF8
Codec ID/Info                            : UTF-8 Plain Text
Title                                    : Forzados
Language                                 : Spanish
Default                                  : Yes
Forced                                   : No

Text #2
ID                                       : 5
Format                                   : UTF-8
Codec ID                                 : S_TEXT/UTF8
Codec ID/Info                            : UTF-8 Plain Text
Language                                 : Spanish
Default                                  : No
Forced                                   : No

Text #3
ID                                       : 6
Format                                   : UTF-8
Codec ID                                 : S_TEXT/UTF8
Codec ID/Info                            : UTF-8 Plain Text
Language                                 : English
Default                                  : No
Forced                                   : No

Menu
00:00:00.000                             : en:Chapter 1
00:04:02.951                             : en:Chapter 2
00:08:15.453                             : en:Chapter 3
00:12:39.050                             : en:Chapter 4
00:16:14.432                             : en:Chapter 5
00:19:55.903                             : en:Chapter 6
00:24:01.315                             : en:Chapter 7
00:27:47.082                             : en:Chapter 8
00:30:34.041                             : en:Chapter 9
00:33:47.567                             : en:Chapter 10
00:38:00.862                             : en:Chapter 11
00:43:25.937                             : en:Chapter 12
00:46:23.030                             : en:Chapter 13
00:50:59.348                             : en:Chapter 14
00:53:35.504                             : en:Chapter 15
01:00:00.680                             : en:Chapter 16
01:01:56.421                             : en:Chapter 17
01:06:22.604                             : en:Chapter 18
01:09:16.778                             : en:Chapter 19
01:13:32.533                             : en:Chapter 20
01:19:54.039                             : en:Chapter 21
01:22:44.793                             : en:Chapter 22
01:25:37.799                             : en:Chapter 23
01:27:52.934                             : en:Chapter 24




Sin Contraseña | Simple Extracción





Links Intercambiables





Enlaces de Mega y Fireload solo disponibles para Miembros VIP

Compra tu Membresía VIP y apoya a Club-HD!

ATENCIÓN! Tenemos TODO el material de Club-HD disponible por Mega y Fireload, enlaces 100% activos y online hasta la fecha

Llévate tus cuentas Mega PRO II gratis con tu membresía VIP!
Todos los posts vivos con links de Mega y Fireload.
Todo el material de Club-HD desbloqueado y sin publicidad.

Click Aquí para más información.



Enlaces de Mega y Fireload solo disponibles para Miembros VIP

Compra tu Membresía VIP y apoya a Club-HD!

ATENCIÓN! Tenemos TODO el material de Club-HD disponible por Mega y Fireload, enlaces 100% activos y online hasta la fecha

Llévate tus cuentas Mega PRO II gratis con tu membresía VIP!
Todos los posts vivos con links de Mega y Fireload.
Todo el material de Club-HD desbloqueado y sin publicidad.

Click Aquí para más información.


Para ver este contenido oculto, debes dar click en una de las siguientes reacciones : Like Like, Love Love, Haha Haha, Wow Wow, Sad Sad, Angry Angry



 
Última edición:

Pedrum

The Buckminster
Registro
28 Ago 2012
Mensajes
1.092
Reacciones
1.546
Puntos
113
Ubicación
Bahia Blanca

Reputation:

ok la voy bajar pero presiento que voy a llorar como un bebe recién nacido con esta película :llrnd2: Lr_7

Gracias master! victory
 

Nosferatu

Well-known member
Súper Moderador
Registro
31 Ago 2012
Mensajes
2.275
Reacciones
1.362
Puntos
113
Edad
44
Ubicación
Welcome to Hell!!

Reputation:

Gracias Maestro de este tipo de películas, son de las que me gustan.:aplausos:Desc_g_

GRACIAS MISTER R21!:aplausos:
 

Usuarios Que Están Viendo Este Tema (Total: 1, Miembros: 0, Invitados: 1)

Arriba