Bedazzled (2000) WEB-DL m-720p Dual Latino-Inglés [Subt. Esp-Ing] (Comedia)

Maestro Revolver

Well-known member
Miembro del Staff
Administrador
Registro
9 Ago 2012
Mensajes
3.569
Reacciones
59.353
Puntos
113

Reputation:









TÍTULO ORIGINAL: Bedazzled
AÑO: 2000
DURACIÓN: 89 min.
PAÍS: USA
DIRECTOR: Harold Ramis
GUIÓN: Larry Gelbart, Harold Ramis, Peter Tolan
REPARTO: Brendan Fraser, Elizabeth Hurley, Frances O'Connor, Orlando Jones
PRODUCTORA: 20th Century Fox / Regency Enterprises
GÉNERO: Comedia | Remake
: http://www.imdb.es/title/tt0230030/






Brendan Fraser es un joven torpe y bondadoso, con poco éxito en la vida, que vende su alma al diablo (una explosiva Elizabeth Hurley) a cambio de unos deseos que no se ven del todo cumplidos.
























La pelicula NO tiene ninguna marca... solo colocamos el nombre de esta web en las capturas






Código:
General
Format                                   : Matroska
Format version                           : Version 2
File size                                : 2.17 GiB
Duration                                 : 1h 33mn
Overall bit rate                         : 3 335 Kbps
Movie name                               : www.club-hd.com
Encoded date                             : UTC 2013-02-11 07:43:53
Writing application                      : mkvmerge v5.7.0 ('The Whirlwind') built on Jul  8 2012 20:08:51
Writing library                          : libebml v1.2.3 + libmatroska v1.3.0

Video
ID                                       : 1
Format                                   : AVC
Format/Info                              : Advanced Video Codec
Format profile                           : High@L4.1
Format settings, CABAC                   : Yes
Format settings, ReFrames                : 9 frames
Codec ID                                 : V_MPEG4/ISO/AVC
Duration                                 : 1h 33mn
Bit rate                                 : 2 630 Kbps
Width                                    : 1 280 pixels
Height                                   : 544 pixels
Display aspect ratio                     : 2.35:1
Frame rate mode                          : Constant
Frame rate                               : 23.976 fps
Color space                              : YUV
Chroma subsampling                       : 4:2:0
Bit depth                                : 8 bits
Scan type                                : Progressive
Bits/(Pixel*Frame)                       : 0.158
Stream size                              : 1.67 GiB (77%)
Title                                    : www.club-hd.com
Writing library                          : x264 core 129 r2230 1cffe9f
Language                                 : English
Default                                  : Yes
Forced                                   : No

Audio #1
ID                                       : 2
Format                                   : AC-3
Format/Info                              : Audio Coding 3
Mode extension                           : CM (complete main)
Format settings, Endianness              : Big
Codec ID                                 : A_AC3
Duration                                 : 1h 33mn
Bit rate mode                            : Constant
Bit rate                                 : 256 Kbps
Channel(s)                               : 2 channels
Channel positions                        : Front: L R
Sampling rate                            : 48.0 KHz
Bit depth                                : 16 bits
Compression mode                         : Lossy
Stream size                              : 171 MiB (8%)
Title                                    : www.club-hd.com  >>  Latino
Language                                 : Spanish
Default                                  : Yes
Forced                                   : No

Audio #2
ID                                       : 3
Format                                   : AC-3
Format/Info                              : Audio Coding 3
Mode extension                           : CM (complete main)
Format settings, Endianness              : Big
Codec ID                                 : A_AC3
Duration                                 : 1h 33mn
Bit rate mode                            : Constant
Bit rate                                 : 448 Kbps
Channel(s)                               : 6 channels
Channel positions                        : Front: L C R, Side: L R, LFE
Sampling rate                            : 48.0 KHz
Bit depth                                : 16 bits
Compression mode                         : Lossy
Stream size                              : 298 MiB (13%)
Title                                    : www.club-hd.com  >>  Inglés
Language                                 : English
Default                                  : No
Forced                                   : No

Text #1
ID                                       : 4
Format                                   : UTF-8
Codec ID                                 : S_TEXT/UTF8
Codec ID/Info                            : UTF-8 Plain Text
Language                                 : Spanish
Default                                  : No
Forced                                   : No

Text #2
ID                                       : 5
Format                                   : UTF-8
Codec ID                                 : S_TEXT/UTF8
Codec ID/Info                            : UTF-8 Plain Text
Language                                 : English
Default                                  : No
Forced                                   : No

Menu
00:00:00.000                             : en:Main Titles
00:03:21.000                             : en:Elliot
00:05:57.000                             : en:The Girl of His Dreams
00:09:22.000                             : en:The Woman in Red
00:15:48.000                             : en:A Devilish Offer
00:19:46.000                             : en:Seven Fabulous Wishes
00:25:22.000                             : en:Rich, Powerful & . . . Spanish?
00:28:08.000                             : en:The Warped Wish
00:36:37.000                             : en:Her Kind of Man
00:40:53.000                             : en:Mr. Sensitive
00:46:46.000                             : en:What Have We Learned?
00:49:24.000                             : en:Big, Strong & Rich
00:52:44.000                             : en:A Tiny Problem
00:57:45.000                             : en:Witty & Articulate
01:02:40.000                             : en:His Kind of Man
01:04:14.000                             : en:Hot for Teacher
01:06:54.000                             : en:A Shot at the Presidency
01:08:31.000                             : en:One Wish Left
01:13:57.000                             : en:Open Up Your Heart
01:16:32.000                             : en:The Last Wish
01:20:05.000                             : en:The Deal Breaker
01:22:48.000                             : en:A New Elliot
01:24:42.000                             : en:The Girl Next Door
01:27:03.000                             : en:End Titles










Enlaces de Mega y Fireload solo disponibles para Miembros VIP

Compra tu Membresía VIP y apoya a Club-HD!

ATENCIÓN! Tenemos TODO el material de Club-HD disponible por Mega y Fireload, enlaces 100% activos y online hasta la fecha

Llévate tus cuentas Mega PRO II gratis con tu membresía VIP!
Todos los posts vivos con links de Mega y Fireload.
Todo el material de Club-HD desbloqueado y sin publicidad.

Click Aquí para más información.




Enlaces de Mega y Fireload solo disponibles para Miembros VIP

Compra tu Membresía VIP y apoya a Club-HD!

ATENCIÓN! Tenemos TODO el material de Club-HD disponible por Mega y Fireload, enlaces 100% activos y online hasta la fecha

Llévate tus cuentas Mega PRO II gratis con tu membresía VIP!
Todos los posts vivos con links de Mega y Fireload.
Todo el material de Club-HD desbloqueado y sin publicidad.

Click Aquí para más información.



Para ver este contenido oculto, debes dar click en una de las siguientes reacciones : Like Like, Love Love, Haha Haha, Wow Wow, Sad Sad, Angry Angry

 
Última edición:

rickykao

Member
Registro
28 Ago 2012
Mensajes
370
Reacciones
20
Puntos
18

Reputation:

GRannnnn !!!!

este es uno de comedia mas picho

graciasss !!!!
 

Usuarios Que Están Viendo Este Tema (Total: 1, Miembros: 0, Invitados: 1)

Arriba