Big Bang Alive Tour 2012 In Japan Special Final In Dome (2012) 1080i HD-TV (Concierto)

Maestro Revolver

Well-known member
Miembro del Staff
Administrador
Registro
9 Ago 2012
Mensajes
3.567








Big Bang se presento en el Tokyo Dome por primera vez con su gira Alive 2012 en Japón. Brindando un excelente espectáculo a sus VIPs japoneses y coreanos. Además de los recientes éxitos como Fantastic Baby Monster, y Bad Boy, el grupo también canto temas, como Gara Gara Go, Haru Haru y Lies. A su vez los miembros, igualmente populares, cantaron sus temas solistas.



Track List:

01. FANTASTIC BABY
02. STUPID LIAR
03. CRAYON
04. ポギガヨ(KNOCK OUT)
05. HIGH HIGH
06. STRONG BABY
07. WHAT CAN I DO
08. CAFE
09. BAD BOY
10. BLUE
11. LOVE SONG
12. MONSTER
13. FEELING
14. ONLY LOOK AT ME
15. WEDDING DRESS
16. WINGS
17. LIES
18. LAST FAREWELL
























La pelicula NO tiene ninguna marca... solo colocamos el nombre de esta web en las capturas






Código:
General
Format                                   : Matroska
Format version                           : Version 2
File size                                : 9.14 GiB
Duration                                 : 1h 57mn
Overall bit rate mode                    : Variable
Overall bit rate                         : 11.1 Mbps
Movie name                               : www.club-hd.com
Encoded date                             : UTC 2013-10-21 23:13:31
Writing application                      : mkvmerge v5.7.0 ('The Whirlwind') built on Jul  8 2012 20:08:51
Writing library                          : libebml v1.2.3 + libmatroska v1.3.0

Video
ID                                       : 1
Format                                   : MPEG Video
Format version                           : Version 2
Format profile                           : Main@High
Format settings, BVOP                    : No
Format settings, Matrix                  : Custom
Codec ID                                 : V_MPEG2
Codec ID/Info                            : MPEG 1 or 2 Video
Duration                                 : 1h 57mn
Bit rate mode                            : Variable
Bit rate                                 : 10.7 Mbps
Maximum bit rate                         : 20.0 Mbps
Width                                    : 1 440 pixels
Height                                   : 1 080 pixels
Display aspect ratio                     : 16:9
Frame rate mode                          : Constant
Frame rate                               : 29.970 fps
Color space                              : YUV
Chroma subsampling                       : 4:2:0
Bit depth                                : 8 bits
Scan type                                : Interlaced
Scan order                               : Top Field First
Compression mode                         : Lossy
Bits/(Pixel*Frame)                       : 0.230
Stream size                              : 8.80 GiB (96%)
Title                                    : www.club-hd.com
Language                                 : Japanese
Default                                  : Yes
Forced                                   : No
Color primaries                          : BT.709
Transfer characteristics                 : BT.709
Matrix coefficients                      : BT.709

Audio
ID                                       : 2
Format                                   : AC-3
Format/Info                              : Audio Coding 3
Mode extension                           : CM (complete main)
Format settings, Endianness              : Big
Codec ID                                 : A_AC3
Duration                                 : 1h 57mn
Bit rate mode                            : Constant
Bit rate                                 : 192 Kbps
Channel(s)                               : 2 channels
Channel positions                        : Front: L R
Sampling rate                            : 48.0 KHz
Bit depth                                : 16 bits
Compression mode                         : Lossy
Delay relative to video                  : -451ms
Stream size                              : 161 MiB (2%)
Title                                    : www.club-hd.com
Language                                 : Japanese
Default                                  : Yes
Forced                                   : No








Enlaces de Mega y Google Drive solo disponibles para Miembros VIP

Compra tu Membresía VIP y apoya a Club-HD!

ATENCIÓN! Tenemos TODO el material de Club-HD disponible por Mega y Google Drive, enlaces 100% activos y online hasta la fecha

Llévate tus cuentas Mega PRO III gratis con tu membresía VIP!
Todos los posts vivos con links de Mega y Google Drive.
Todo el material de Club-HD desbloqueado y sin publicidad.

Click Aquí para más información.



Para ver este contenido oculto, debes dar click en una de las siguientes reacciones : Like Like, Love Love, Haha Haha, Wow Wow, Sad Sad, Angry Angry

 
Última edición por un moderador:

Doctor Jason

New member
Súper Moderador
Registro
1 Sep 2012
Mensajes
2.398
Ubicación
Buenos Aires
Muchas Gracias!!!

:drg::drg::drg:Eh!!!..Loco!!!T_L..Esto amigos de ojos rasgados nos estan robando los pasos...........



..................:slbd:tirate un que? tirate un paso!!!.....:slbd:Estos japoneses nos roban los pasos!!!:cnfus::cnfus::cnfus::drg::drg::drg:
 

Claudia

New member
Súper Moderador
Registro
28 Ago 2012
Mensajes
2.282
Edad
48
Ubicación
EN MI MUNDO REAL...
Muchas Gracias!!!

:drg::drg::drg:Eh!!!..Loco!!!T_L..Esto amigos de ojos rasgados nos estan robando los pasos...........



..................:slbd:tirate un que? tirate un paso!!!.....:slbd:Estos japoneses nos roban los pasos!!!:cnfus::cnfus::cnfus::drg::drg::drg:

Nooooooo es mala palabra DR.Jason no asesines a una de las bandas mas grandes del K-POP y son Sur Coreanos jajajaj:crcjd::bsrs:

Me rompiste el corazon son mid IDOLOSSSSSSSSSSSSS....
.:llrnd2:..
 

Claudia

New member
Súper Moderador
Registro
28 Ago 2012
Mensajes
2.282
Edad
48
Ubicación
EN MI MUNDO REAL...
:aplausos:No se como expresar mi alegris Boss, es increible ver este genero de musica tan poco difundido y el cual recien en este ultimo año a transpasado fronteras, Gracias muchas gracias!!!!!!!!

dancedance3:sprloc:Hurr4hMe has iluminado el comienzo de mi jornada sos Sorprendentemente Increible Bosss no hay imposibles para vos...!!!!!!!!!!!!Pl4yb0y:aplausos: MUCHAS GRACIAS!!!!!!!!:LXR::LXR::LXR::LXR:
 

Doctor Jason

New member
Súper Moderador
Registro
1 Sep 2012
Mensajes
2.398
Ubicación
Buenos Aires
Nooooooo es mala palabra DR.Jason no asesines a una de las bandas mas grandes del K-POP y son Sur Coreanos jajajaj:crcjd::bsrs:

Me rompiste el corazon son mid IDOLOSSSSSSSSSSSSS....
.:llrnd2:..

Era un chistecito Clau!!!xD

La verdad respeto todo género músical que exísta, cada uno tiene derecho a escuchar la música que le gusta, esa es mi opinión. Yo en particular escucho Reggae y sus derivados como: Dancehall, Dub, Ska, Rocksteady, etc y todo el mundo me dice: "Eh Aguante el Faso, Loco!!!" y yo en particular no fumo, pero pensandolo por los comentarios que escribo, nadie me lo va a creer, pero es la verdad!!!xD

Saludos.bye

Unamos Nuestros Géneros!!!:dplgar:

 

Usuarios Que Están Viendo Este Tema (Total: 1, Miembros: 0, Invitados: 1)

Quién Leyó Este Tema (Total Miembros: 1)

Arriba