Black Panther: Wakanda Forever (2022) HDCAM 1080p Latino-Inglés [No Subt.]

Bebesaurio

Well-known member
Miembro del Staff
Moderador
Uploader
Miembro VIP
Registro
12 Mar 2018
Mensajes
1.054
Edad
24

[prebreak][/prebreak]

Sinopsis

La reina Ramonda, Shuri, M’Baku, Okoye y las Dora Milaje, luchan para proteger su nación de la injerencia de potencias mundiales a raíz de la muerte del rey T’Challa. Mientras los wakandianos se esfuerzan por adaptarse a su nueva etapa, los héroes deben actuar unidos, con la ayuda del Perro de la Guerra Nakia y Everett Ross, y forzar un nuevo destino para el reino de Wakanda.



MEDIAINFO

Gracias a Vizard por sincronizar el audio latino a esta versión.

Al audio latino le faltan los primeros 10 segundos de la película donde habla Shuri
así que es necesario seleccionar los subtítulos forzados español solo para esa escena

Para las escenas donde hablan en otros idiomas que no estan doblados en el audio latino
hay subtítulos forzados pegados al video (que son del mismo cine)

Sample de la primera escena de la película (1m 50s)
https://www118.zippyshare.com/v/VABs4Z9U/file.html


Código:
File size                                : 7,41 GiB
Duration                                 : 2 h 33 min
Overall bit rate                         : 6 893 kb/s
Encoded date                             : UTC 2022-11-16 06:00:05
Writing application                      : mkvmerge v70.0.0 ('Caught A Lite Sneeze') 64-bit
Writing library                          : libebml v1.4.2 + libmatroska v1.6.4 / Lavf59.30.100
TCOD                                     : 36000000000

Vídeo
ID                                       : 1
Format                                   : AVC
Format/Info                              : Advanced Video Codec
Format profile                           : High@L4.1
Format settings                          : CABAC / 4 Ref Frames
Format settings, CABAC                   : Sí
Format settings, Reference frames        : 4 fotogramas
Codec ID                                 : V_MPEG4/ISO/AVC
Duration                                 : 2 h 33 min
Bit rate mode                            : Constante
Bit rate                                 : 6 500 kb/s
Width                                    : 1 920 píxeles
Height                                   : 1 080 píxeles
Display aspect ratio                     : 16:9
Frame rate mode                          : Constante
Frame rate                               : 24,000 FPS
Color space                              : YUV
Chroma subsampling                       : 4:2:0
Bit depth                                : 8 bits
Scan type                                : Progresivo
Bits/(Pixel*Frame)                       : 0.131
Stream size                              : 6,86 GiB (93%)
Writing library                          : x264 core 164 r3095 baee400
Encoding settings                        : cabac=1 / ref=4 / deblock=1:-2:-2 / analyse=0x3:0x133 / me=umh / subme=10 / psy=1 / psy_rd=1.00:0.25 / mixed_ref=1 / me_range=24 / chroma_me=1 / trellis=2 / 8x8dct=1 / cqm=0 / deadzone=6,6 / fast_pskip=1 / chroma_qp_offset=-4 / threads=15 / lookahead_threads=2 / sliced_threads=0 / nr=0 / decimate=0 / interlaced=0 / bluray_compat=0 / constrained_intra=0 / bframes=8 / b_pyramid=2 / b_adapt=2 / b_bias=0 / direct=3 / weightb=1 / open_gop=0 / weightp=2 / keyint=250 / keyint_min=24 / scenecut=40 / intra_refresh=0 / rc_lookahead=60 / rc=2pass / mbtree=1 / bitrate=6500 / ratetol=1.0 / qcomp=0.80 / qpmin=0 / qpmax=69 / qpstep=4 / cplxblur=20.0 / qblur=0.5 / vbv_maxrate=6500 / vbv_bufsize=13000 / nal_hrd=cbr / filler=1 / ip_ratio=1.10 / aq=1:0.50
Language                                 : Inglés
Default                                  : No
Forced                                   : No
Color range                              : Limited
Color primaries                          : BT.709
Transfer characteristics                 : BT.709
Matrix coefficients                      : BT.709

Audio #1
ID                                       : 2
Format                                   : AC-3
Format/Info                              : Audio Coding 3
Commercial name                          : Dolby Digital
Codec ID                                 : A_AC3
Duration                                 : 2 h 33 min
Bit rate mode                            : Constante
Bit rate                                 : 192 kb/s
Channel(s)                               : 2 canales
Channel layout                           : L R
Sampling rate                            : 48,0 kHz
Frame rate                               : 31,250 FPS (1536 SPF)
Compression mode                         : Con pérdida
Delay relative to video                  : -5 ms
Stream size                              : 211 MiB (3%)
Title                                    : Latino AC3 2.0
Language                                 : Español
Service kind                             : Complete Main
Default                                  : Sí
Forced                                   : No

Audio #2
ID                                       : 4
Format                                   : AC-3
Format/Info                              : Audio Coding 3
Commercial name                          : Dolby Digital
Codec ID                                 : A_AC3
Duration                                 : 2 h 33 min
Bit rate mode                            : Constante
Bit rate                                 : 320 kb/s
Channel(s)                               : 2 canales
Channel layout                           : L R
Sampling rate                            : 48,0 kHz
Frame rate                               : 31,250 FPS (1536 SPF)
Compression mode                         : Con pérdida
Delay relative to video                  : -5 ms
Stream size                              : 352 MiB (5%)
Title                                    : english
Language                                 : Inglés
Service kind                             : Complete Main
Default                                  : Sí
Forced                                   : No

Texto #1
ID                                       : 3
Format                                   : UTF-8
Codec ID                                 : S_TEXT/UTF8
Codec ID/Info                            : UTF-8 Plain Text
Duration                                 : 8 s 220 ms
Bit rate                                 : 99 b/s
Frame rate                               : 0,365 FPS
Count of elements                        : 3
Stream size                              : 102 Bytes (0%)
Title                                    : Forzados
Language                                 : Español
Default                                  : Sí
Forced                                   : No

Texto #2
ID                                       : 5
Format                                   : UTF-8
Codec ID                                 : S_TEXT/UTF8
Codec ID/Info                            : UTF-8 Plain Text
Duration                                 : 2 h 31 min
Bit rate                                 : 4 b/s
Frame rate                               : 0,021 FPS
Count of elements                        : 190
Stream size                              : 5,50 KiB (0%)
Title                                    : english forced
Language                                 : Inglés
Default                                  : Sí
Forced                                   : Sí

CAPTURAS





ENLACES VIP



Enlaces de Mega y Google Drive solo disponibles para Miembros VIP

Compra tu Membresía VIP y apoya a Club-HD!

ATENCIÓN! Tenemos TODO el material de Club-HD disponible por Mega y Google Drive, enlaces 100% activos y online hasta la fecha

Llévate tus cuentas Mega PRO III gratis con tu membresía VIP!
Todos los posts vivos con links de Mega y Google Drive.
Todo el material de Club-HD desbloqueado y sin publicidad.

Click Aquí para más información.
ENLACES FREE



Para ver este contenido oculto, debes dar click en una de las siguientes reacciones : Like Like, Love Love, Haha Haha, Wow Wow, Sad Sad, Angry Angry


Para ver este contenido oculto, debes dar click en una de las siguientes reacciones : Like Like, Love Love, Haha Haha, Wow Wow, Sad Sad, Angry Angry
CONTRASEÑA
Código:
www.club-hd.com
 
Última edición por un moderador:

Usuarios Que Están Viendo Este Tema (Total: 1, Miembros: 0, Invitados: 1)

Quién Leyó Este Tema (Total Miembros: 164)

Arriba