Black Widow (2021) 720p BDRip Dual Latino-Inglés [Subt. Esp] (Acción. Aventuras)

Bebesaurio

Novio de Vizard
Miembro del equipo
Moderador
Uploader
Registro
12 Mar 2018
Mensajes
851
Reacciones
25.321
Puntos
93
Edad
22

Reputation:




Sinopsis

Natasha Romanoff, alias Viuda Negra, se enfrenta a los capítulos más oscuros de su historia cuando surge una peligrosa conspiración relacionada con su pasado. Perseguida por una fuerza que no se detendrá ante nada para acabar con ella, Natasha debe lidiar con su historia como espía y con la estela de relaciones destruidas que dejó atrás mucho antes de convertirse en Vengadora.



MEDIAINFO
Código:
General
Unique ID                      : 6988746920551707746756084171520505249 (0x541FBD38DC00C25C573C775B40E75A1)
Format                         : Matroska
Format version                 : Version 4
File size                      : 5.55 GiB
Duration                       : 2 h 13 min
Overall bit rate               : 5 941 kb/s
Encoded date                   : UTC 2021-09-06 16:37:23
Writing application            : mkvmerge v59.0.0 ('Shining Star') 64-bit
Writing library                : libebml v1.4.2 + libmatroska v1.6.4 / Lavf58.20.100

Video
ID                             : 1
Format                         : AVC
Format/Info                    : Advanced Video Codec
Format profile                 : High@L4.1
Format settings                : CABAC / 12 Ref Frames
Format settings, CABAC         : Yes
Format settings, Reference fra : 12 frames
Codec ID                       : V_MPEG4/ISO/AVC
Duration                       : 2 h 13 min
Bit rate                       : 4 650 kb/s
Width                          : 1 280 pixels
Height                         : 536 pixels
Display aspect ratio           : 2.40:1
Frame rate mode                : Constant
Frame rate                     : 23.976 (24000/1001) FPS
Color space                    : YUV
Chroma subsampling             : 4:2:0
Bit depth                      : 8 bits
Scan type                      : Progressive
Bits/(Pixel*Frame)             : 0.283
Stream size                    : 4.35 GiB (78%)
Writing library                : x264 core 164 r3065+62M b012ed0 devel [(8 & 10)-bit@all X86_64]
Encoding settings              : cabac=1 / ref=12 / deblock=1:-3:-3 / analyse=0x3:0x133 / me=umh / subme=10 / psy=1 / fade_compensate=0.00 / psy_rd=1.00:0.00 / mixed_ref=1 / me_range=24 / chroma_me=1 / trellis=2 / 8x8dct=1 / cqm=0 / deadzone=21,11 / fast_pskip=0 / chroma_qp_offset=-2 / threads=17 / lookahead_threads=2 / sliced_threads=0 / nr=0 / decimate=0 / interlaced=0 / bluray_compat=0 / constrained_intra=0 / fgo=0 / bframes=8 / b_pyramid=2 / b_adapt=2 / b_bias=0 / direct=3 / weightb=1 / open_gop=0 / weightp=2 / keyint=250 / keyint_min=23 / scenecut=40 / intra_refresh=0 / rc_lookahead=60 / rc=crf / mbtree=0 / crf=16.0000 / qcomp=0.60 / qpmin=0:0:0 / qpmax=69:69:69 / qpstep=4 / vbv_maxrate=62500 / vbv_bufsize=78125 / crf_max=0.0 / nal_hrd=none / filler=0 / ip_ratio=1.30 / pb_ratio=1.20 / aq=3:0.80 / aq-sensitivity=10.00 / aq-factor=1.00:1.00:1.00 / aq2=0 / aq3=0
Language                       : English
Default                        : Yes
Forced                         : No
Color range                    : Limited
Matrix coefficients            : BT.709

Audio #1
ID                             : 2
Format                         : AC-3
Format/Info                    : Audio Coding 3
Commercial name                : Dolby Digital
Codec ID                       : A_AC3
Duration                       : 2 h 13 min
Bit rate mode                  : Constant
Bit rate                       : 640 kb/s
Channel(s)                     : 6 channels
Channel layout                 : L R C LFE Ls Rs
Sampling rate                  : 48.0 kHz
Frame rate                     : 31.250 FPS (1536 SPF)
Compression mode               : Lossy
Stream size                    : 612 MiB (11%)
Title                          : Latino
Language                       : Spanish
Service kind                   : Complete Main
Default                        : Yes
Forced                         : No

Audio #2
ID                             : 3
Format                         : AC-3
Format/Info                    : Audio Coding 3
Commercial name                : Dolby Digital
Codec ID                       : A_AC3
Duration                       : 2 h 13 min
Bit rate mode                  : Constant
Bit rate                       : 640 kb/s
Channel(s)                     : 6 channels
Channel layout                 : L R C LFE Ls Rs
Sampling rate                  : 48.0 kHz
Frame rate                     : 31.250 FPS (1536 SPF)
Compression mode               : Lossy
Stream size                    : 612 MiB (11%)
Language                       : English
Service kind                   : Complete Main
Default                        : Yes
Forced                         : No

Text #1
ID                             : 4
Format                         : UTF-8
Codec ID                       : S_TEXT/UTF8
Codec ID/Info                  : UTF-8 Plain Text
Duration                       : 2 h 13 min
Bit rate                       : 48 b/s
Count of elements              : 1647
Stream size                    : 47.3 KiB (0%)
Title                          : SDH
Language                       : English
Default                        : No
Forced                         : No

Text #2
ID                             : 5
Format                         : UTF-8
Codec ID                       : S_TEXT/UTF8
Codec ID/Info                  : UTF-8 Plain Text
Duration                       : 2 h 12 min
Bit rate                       : 40 b/s
Count of elements              : 1345
Stream size                    : 39.2 KiB (0%)
Language                       : English
Default                        : No
Forced                         : No

Text #3
ID                             : 6
Format                         : UTF-8
Codec ID                       : S_TEXT/UTF8
Codec ID/Info                  : UTF-8 Plain Text
Duration                       : 2 h 12 min
Bit rate                       : 40 b/s
Count of elements              : 1302
Stream size                    : 39.5 KiB (0%)
Title                          : Español (Latinoamérica)
Language                       : Spanish
Default                        : No
Forced                         : No

Text #4
ID                             : 7
Format                         : UTF-8
Codec ID                       : S_TEXT/UTF8
Codec ID/Info                  : UTF-8 Plain Text
Duration                       : 2 h 12 min
Bit rate                       : 36 b/s
Count of elements              : 1277
Stream size                    : 35.1 KiB (0%)
Title                          : Español
Language                       : Spanish
Default                        : No
Forced                         : No

Text #5
ID                             : 8
Format                         : PGS
Muxing mode                    : zlib
Codec ID                       : S_HDMV/PGS
Codec ID/Info                  : Picture based subtitle format used on BDs/HD-DVDs
Duration                       : 2 h 0 min
Bit rate                       : 1 076 b/s
Count of elements              : 112
Stream size                    : 951 KiB (0%)
Title                          : Forzados PGS Latino
Language                       : Spanish
Default                        : Yes
Forced                         : No

Text #6
ID                             : 9
Format                         : PGS
Muxing mode                    : zlib
Codec ID                       : S_HDMV/PGS
Codec ID/Info                  : Picture based subtitle format used on BDs/HD-DVDs
Duration                       : 2 h 12 min
Bit rate                       : 25.8 kb/s
Count of elements              : 2604
Stream size                    : 24.4 MiB (0%)
Title                          : Completos PGS Completo
Language                       : Spanish
Default                        : Yes
Forced                         : No

Menu
00:00:00.000                   : Chapter 01
00:04:55.170                   : Chapter 02
00:13:10.081                   : Chapter 03
00:16:24.567                   : Chapter 04
00:18:41.871                   : Chapter 05
00:21:41.634                   : Chapter 06
00:25:40.789                   : Chapter 07
00:30:06.346                   : Chapter 08
00:39:05.468                   : Chapter 09
00:44:46.350                   : Chapter 10
00:53:25.994                   : Chapter 11
01:01:38.153                   : Chapter 12
01:07:46.271                   : Chapter 13
01:11:40.671                   : Chapter 14
01:17:48.789                   : Chapter 15
01:27:19.234                   : Chapter 16
01:33:33.441                   : Chapter 17
01:37:37.477                   : Chapter 18
01:41:18.656                   : Chapter 19
01:45:37.873                   : Chapter 20
01:51:41.653                   : Chapter 21
01:57:09.105                   : Chapter 22
02:01:59.687                   : Chapter 23
02:04:25.458                   : Chapter 24

CAPTURAS





ENLACES VIP



Enlaces de Mega y Fireload solo disponibles para Miembros VIP

Compra tu Membresía VIP y apoya a Club-HD!

ATENCIÓN! Tenemos TODO el material de Club-HD disponible por Mega y Fireload, enlaces 100% activos y online hasta la fecha

Llévate tus cuentas Mega PRO II gratis con tu membresía VIP!
Todos los posts vivos con links de Mega y Fireload.
Todo el material de Club-HD desbloqueado y sin publicidad.

Click Aquí para más información.


Enlaces de Mega y Fireload solo disponibles para Miembros VIP

Compra tu Membresía VIP y apoya a Club-HD!

ATENCIÓN! Tenemos TODO el material de Club-HD disponible por Mega y Fireload, enlaces 100% activos y online hasta la fecha

Llévate tus cuentas Mega PRO II gratis con tu membresía VIP!
Todos los posts vivos con links de Mega y Fireload.
Todo el material de Club-HD desbloqueado y sin publicidad.

Click Aquí para más información.
ENLACES FREE



Para ver este contenido oculto, debes dar click en una de las siguientes reacciones : Like Like, Love Love, Haha Haha, Wow Wow, Sad Sad, Angry Angry


Para ver este contenido oculto, debes dar click en una de las siguientes reacciones : Like Like, Love Love, Haha Haha, Wow Wow, Sad Sad, Angry Angry



Para ver este contenido oculto, debes dar click en una de las siguientes reacciones : Like Like, Love Love, Haha Haha, Wow Wow, Sad Sad, Angry Angry
CONTRASEÑA
Código:
www.club-hd.com
 

exodia1234

Active member
Registro
8 Dic 2013
Mensajes
554
Reacciones
81
Puntos
28

Reputation:

Gracias San Bebe jaja, en serio, gracias por seguir apoyando cuando puedes esta resolucion :)
 

hiei

Member
Registro
19 Abr 2014
Mensajes
616
Reacciones
10
Puntos
18

Reputation:

Gracias por compartir esta pelicula!!! Tenía tiempo que no veia aportes nuevos en esta calidad.
 

conejo

Active member
Registro
30 Ago 2012
Mensajes
1.172
Reacciones
19
Puntos
38

Reputation:

¿Podrías reponer los links caídos de UPLOADED.NET por favor?
 

Usuarios Que Están Viendo Este Tema (Total: 2, Miembros: 0, Invitados: 2)

Arriba