Blade (1998) m-720p Dual Latino-Inglés [Subt. Esp] (Fantástico. Terror. Acción)

Maestro Revolver

Well-known member
Miembro del Staff
Administrador
Registro
9 Ago 2012
Mensajes
3.569
Reacciones
59.346
Puntos
113

Reputation:









TÍTULO ORIGINAL: Blade
AÑO: 1998
DURACIÓN: 120 min.
PAÍS: USA
DIRECTOR: Stephen Norrington
GUIÓN: David S. Goyer (Cómic: Marv Wolfman & Gene Colan)
REPARTO: Wesley Snipes, Stephen Dorff, Kris Kristofferson, Sanaa Lathan, Donal Logue, Traci Lords, Udo Kier, N'Bushe Wright, Arly Jover
PRODUCTORA: New Line Cinema / Amen Ra Films
GÉNERO: Fantástico. Terror. Acción | Vampiros. Superhéroes. Cómic. Marvel Comics
: http://www.imdb.com/title/tt0120611/






En un mundo cohabitado en guerra por hombres y vampiros Blade es un vampiro que, al contrario que el resto, no se alimenta de humanos, y que pretende acabar con la raza de "seres superiores" que mordieron a su madre cuando estaba embarazada.
























La pelicula NO tiene ninguna marca... solo colocamos el nombre de esta web en las capturas






Código:
General
Format                                   : Matroska
Format version                           : Version 2
File size                                : 3.05 GiB
Duration                                 : 2h 0mn
Overall bit rate                         : 3 636 Kbps
Movie name                               : www.club-hd.com
Encoded date                             : UTC 2013-02-22 04:17:13
Writing application                      : mkvmerge v5.7.0 ('The Whirlwind') built on Jul  8 2012 20:08:51
Writing library                          : libebml v1.2.3 + libmatroska v1.3.0

Video
ID                                       : 1
Format                                   : AVC
Format/Info                              : Advanced Video Codec
Format profile                           : High@L4.1
Format settings, CABAC                   : Yes
Format settings, ReFrames                : 10 frames
Codec ID                                 : V_MPEG4/ISO/AVC
Duration                                 : 2h 0mn
Bit rate                                 : 3 000 Kbps
Width                                    : 1 280 pixels
Height                                   : 720 pixels
Display aspect ratio                     : 16:9
Frame rate mode                          : Constant
Frame rate                               : 23.976 fps
Color space                              : YUV
Chroma subsampling                       : 4:2:0
Bit depth                                : 8 bits
Scan type                                : Progressive
Bits/(Pixel*Frame)                       : 0.136
Stream size                              : 2.46 GiB (80%)
Title                                    : www.club-hd.com
Writing library                          : x264 core 114 r1924 08d04a4
Language                                 : English
Default                                  : Yes
Forced                                   : No

Audio #1
ID                                       : 2
Format                                   : AC-3
Format/Info                              : Audio Coding 3
Format profile                           : Dolby Digital
Mode extension                           : CM (complete main)
Format settings, Endianness              : Big
Codec ID                                 : A_AC3
Duration                                 : 2h 0mn
Bit rate mode                            : Constant
Bit rate                                 : 192 Kbps
Channel(s)                               : 2 channels
Channel positions                        : Front: L R
Sampling rate                            : 48.0 KHz
Bit depth                                : 16 bits
Compression mode                         : Lossy
Stream size                              : 165 MiB (5%)
Title                                    : www.club-hd.com  >>  Latino
Language                                 : Spanish
Default                                  : Yes
Forced                                   : No

Audio #2
ID                                       : 3
Format                                   : AC-3
Format/Info                              : Audio Coding 3
Mode extension                           : CM (complete main)
Format settings, Endianness              : Big
Codec ID                                 : A_AC3
Duration                                 : 2h 0mn
Bit rate mode                            : Constant
Bit rate                                 : 448 Kbps
Channel(s)                               : 6 channels
Channel positions                        : Front: L C R, Side: L R, LFE
Sampling rate                            : 48.0 KHz
Bit depth                                : 16 bits
Compression mode                         : Lossy
Stream size                              : 385 MiB (12%)
Title                                    : www.club-hd.com  >>  Inglés
Language                                 : English
Default                                  : No
Forced                                   : No

Text
ID                                       : 4
Format                                   : UTF-8
Codec ID                                 : S_TEXT/UTF8
Codec ID/Info                            : UTF-8 Plain Text
Language                                 : Spanish
Default                                  : No
Forced                                   : No

Menu
00:00:00.000                             : en:00:00:00.000
00:05:15.190                             : en:00:05:15.190
00:10:59.200                             : en:00:10:59.200
00:16:14.515                             : en:00:16:14.515
00:23:43.380                             : en:00:23:43.380
00:30:39.796                             : en:00:30:39.796
00:39:18.565                             : en:00:39:18.565
00:45:49.246                             : en:00:45:49.246
00:50:14.428                             : en:00:50:14.428
00:58:07.275                             : en:00:58:07.275
01:08:06.541                             : en:01:08:06.541
01:14:49.360                             : en:01:14:49.360
01:25:07.060                             : en:01:25:07.060
01:36:50.138                             : en:01:36:50.138
01:53:14.246                             : en:01:53:14.246
01:55:12.489                             : en:01:55:12.489










Enlaces de Mega y Fireload solo disponibles para Miembros VIP

Compra tu Membresía VIP y apoya a Club-HD!

ATENCIÓN! Tenemos TODO el material de Club-HD disponible por Mega y Fireload, enlaces 100% activos y online hasta la fecha

Llévate tus cuentas Mega PRO II gratis con tu membresía VIP!
Todos los posts vivos con links de Mega y Fireload.
Todo el material de Club-HD desbloqueado y sin publicidad.

Click Aquí para más información.




Enlaces de Mega y Fireload solo disponibles para Miembros VIP

Compra tu Membresía VIP y apoya a Club-HD!

ATENCIÓN! Tenemos TODO el material de Club-HD disponible por Mega y Fireload, enlaces 100% activos y online hasta la fecha

Llévate tus cuentas Mega PRO II gratis con tu membresía VIP!
Todos los posts vivos con links de Mega y Fireload.
Todo el material de Club-HD desbloqueado y sin publicidad.

Click Aquí para más información.



Para ver este contenido oculto, debes dar click en una de las siguientes reacciones : Like Like, Love Love, Haha Haha, Wow Wow, Sad Sad, Angry Angry

 
Última edición:

eljumachi

Well-known member
Miembro VIP
Registro
27 Ago 2012
Mensajes
2.174
Reacciones
339
Puntos
83

Reputation:

Excelente Estas de vampiros siempre me han gustado Gracias R21 ya comenzó la saga Saludos
 

angumon30

Active member
Registro
27 Ago 2012
Mensajes
1.093
Reacciones
15
Puntos
38
Edad
41

Reputation:

Muchas gracias.... Espero con toda la saga muy agradecido
 

Howl

Well-known member
Miembro VIP
Registro
28 Ago 2012
Mensajes
1.765
Reacciones
87
Puntos
48

Reputation:

mas pelis gracias xD
 

Usuarios Que Están Viendo Este Tema (Total: 1, Miembros: 0, Invitados: 1)

Arriba