Blade II (2002) m-720p Dual Latino-Inglés [Subt. Esp] (Fantástico. Terror. Acción)

Maestro Revolver

Well-known member
Miembro del Staff
Administrador
Registro
9 Ago 2012
Mensajes
3.569
Reacciones
59.364
Puntos
113

Reputation:









TÍTULO ORIGINAL: Blade II (Blade 2)
AÑO: 2002
DURACIÓN: 108 min.
PAÍS: USA
DIRECTOR: Guillermo del Toro
GUIÓN: David S. Goyer (Cómic: Marv Wolfman & Gene Colan)
REPARTO: Wesley Snipes, Kris Kristofferson, Norman Reedus, Leonor Varela, Ron Perlman, Tcheky Karyo, Luke Gross, Matt Schulze, Thomas Kretschmann, Danny John Jules, Tony Curran, Donnie Yen, Marit Velle Kile, Daz Crawford, Santiago Segura
PRODUCTORA: New Line Cinema
GÉNERO: Fantástico. Acción. Terror | Vampiros. Superhéroes. Cómic. Marvel Comics. Secuela
: http://www.imdb.com/title/tt0187738/






Una nueva raza de vampiros, los Reapers, surge para atacar tanto a los humanos como a los de su propia raza, causando el terror. El Consejo de la Sombra, un grupo de vampiros que teme por su supervivencia y que tiene su sede en Praga, contacta con Blade para que acabe con ellos.
























La pelicula NO tiene ninguna marca... solo colocamos el nombre de esta web en las capturas






Código:
General
Format                                   : Matroska
Format version                           : Version 2
File size                                : 2.97 GiB
Duration                                 : 1h 56mn
Overall bit rate                         : 3 640 Kbps
Movie name                               : www.club-hd.com
Encoded date                             : UTC 2013-02-22 21:04:12
Writing application                      : mkvmerge v5.7.0 ('The Whirlwind') built on Jul  8 2012 20:08:51
Writing library                          : libebml v1.2.3 + libmatroska v1.3.0

Video
ID                                       : 1
Format                                   : AVC
Format/Info                              : Advanced Video Codec
Format profile                           : High@L4.1
Format settings, CABAC                   : Yes
Format settings, ReFrames                : 10 frames
Codec ID                                 : V_MPEG4/ISO/AVC
Duration                                 : 1h 56mn
Bit rate                                 : 3 000 Kbps
Width                                    : 1 280 pixels
Height                                   : 720 pixels
Display aspect ratio                     : 16:9
Frame rate mode                          : Constant
Frame rate                               : 23.976 fps
Color space                              : YUV
Chroma subsampling                       : 4:2:0
Bit depth                                : 8 bits
Scan type                                : Progressive
Bits/(Pixel*Frame)                       : 0.136
Stream size                              : 2.39 GiB (80%)
Title                                    : www.club-hd.com
Writing library                          : x264 core 114 r1924 08d04a4
Language                                 : English
Default                                  : Yes
Forced                                   : No

Audio #1
ID                                       : 2
Format                                   : AC-3
Format/Info                              : Audio Coding 3
Format profile                           : Dolby Digital
Mode extension                           : CM (complete main)
Format settings, Endianness              : Big
Codec ID                                 : A_AC3
Duration                                 : 1h 56mn
Bit rate mode                            : Constant
Bit rate                                 : 192 Kbps
Channel(s)                               : 2 channels
Channel positions                        : Front: L R
Sampling rate                            : 48.0 KHz
Bit depth                                : 16 bits
Compression mode                         : Lossy
Stream size                              : 160 MiB (5%)
Title                                    : www.club-hd.com  >>  Latino
Language                                 : Spanish
Default                                  : Yes
Forced                                   : No

Audio #2
ID                                       : 3
Format                                   : AC-3
Format/Info                              : Audio Coding 3
Mode extension                           : CM (complete main)
Format settings, Endianness              : Big
Codec ID                                 : A_AC3
Duration                                 : 1h 56mn
Bit rate mode                            : Constant
Bit rate                                 : 448 Kbps
Channel(s)                               : 6 channels
Channel positions                        : Front: L C R, Side: L R, LFE
Sampling rate                            : 48.0 KHz
Bit depth                                : 16 bits
Compression mode                         : Lossy
Stream size                              : 374 MiB (12%)
Title                                    : www.club-hd.com  >>  Inglés
Language                                 : English
Default                                  : No
Forced                                   : No

Text
ID                                       : 4
Format                                   : UTF-8
Codec ID                                 : S_TEXT/UTF8
Codec ID/Info                            : UTF-8 Plain Text
Language                                 : Spanish
Default                                  : No
Forced                                   : No

Menu
00:00:00.000                             : en:00:00:00.000
00:04:57.964                             : en:00:04:57.964
00:12:42.679                             : en:00:12:42.679
00:16:59.936                             : en:00:16:59.936
00:23:12.182                             : en:00:23:12.182
00:28:36.381                             : en:00:28:36.381
00:36:23.181                             : en:00:36:23.181
00:39:33.705                             : en:00:39:33.705
00:47:46.864                             : en:00:47:46.864
00:57:21.480                             : en:00:57:21.480
01:05:49.237                             : en:01:05:49.237
01:12:31.389                             : en:01:12:31.389
01:22:00.082                             : en:01:22:00.082
01:29:42.168                             : en:01:29:42.168
01:38:02.085                             : en:01:38:02.085
01:49:13.964                             : en:01:49:13.964









Enlaces de Mega y Fireload solo disponibles para Miembros VIP

Compra tu Membresía VIP y apoya a Club-HD!

ATENCIÓN! Tenemos TODO el material de Club-HD disponible por Mega y Fireload, enlaces 100% activos y online hasta la fecha

Llévate tus cuentas Mega PRO II gratis con tu membresía VIP!
Todos los posts vivos con links de Mega y Fireload.
Todo el material de Club-HD desbloqueado y sin publicidad.

Click Aquí para más información.




Enlaces de Mega y Fireload solo disponibles para Miembros VIP

Compra tu Membresía VIP y apoya a Club-HD!

ATENCIÓN! Tenemos TODO el material de Club-HD disponible por Mega y Fireload, enlaces 100% activos y online hasta la fecha

Llévate tus cuentas Mega PRO II gratis con tu membresía VIP!
Todos los posts vivos con links de Mega y Fireload.
Todo el material de Club-HD desbloqueado y sin publicidad.

Click Aquí para más información.



Para ver este contenido oculto, debes dar click en una de las siguientes reacciones : Like Like, Love Love, Haha Haha, Wow Wow, Sad Sad, Angry Angry

 
Última edición:

sharklui

Well-known member
Miembro VIP
Registro
28 Ago 2012
Mensajes
1.026
Reacciones
271
Puntos
83
Ubicación
The Matrix

Reputation:

:aplausos:

Lo mejor y en los mejores formatos para todos los gustos Tb_up3 Muchas gracias Revolver por estos super aportes :aplausos:
 

eljumachi

Well-known member
Miembro VIP
Registro
27 Ago 2012
Mensajes
2.174
Reacciones
339
Puntos
83

Reputation:

Gracias R21 lo estaba esperando solo falta uno , saludos
 

Bankai

Active member
Uploader
Colaborador
Registro
28 Ago 2012
Mensajes
733
Reacciones
48
Puntos
28

Reputation:

gracias super pelicula
 

orcko5001

Active member
Registro
27 Ago 2012
Mensajes
288
Reacciones
35
Puntos
28
Edad
37

Reputation:

muchas gracias tendre q descargarme la trilogia saludos
 

Usuarios Que Están Viendo Este Tema (Total: 1, Miembros: 0, Invitados: 1)

Arriba