Blade Trinity (2004) UNRATED m-720p Dual Latino-Inglés [Subt. Esp] (Fantástico. Terror. Acción)

Maestro Revolver

Well-known member
Miembro del Staff
Administrador
Registro
9 Ago 2012
Mensajes
3.569
Reacciones
59.364
Puntos
113

Reputation:









TÍTULO ORIGINAL: Blade Trinity (Blade 3)
AÑO: 2004
DURACIÓN: 113 min.
PAÍS: USA
DIRECTOR: David S. Goyer
GUIÓN: David S. Goyer (Personajes: Marv Wolfman & Gene Colan)
REPARTO: Wesley Snipes, Ryan Reynolds, Jessica Biel, Dominic Purcell, Parker Posey, Natasha Lyonne, James Remar, Eric Bogosian, Kris Kristofferson
PRODUCTORA: New Line Cinema
GÉNERO: Acción. Fantástico. Terror | Superhéroes. Marvel Comics. Vampiros. Cómic. Secuela
: http://www.imdb.com/title/tt0359013/






Durante años, Blade ha luchado contra los vampiros sin que el mundo supiera lo que sucedía en los bajos fondos. Pero ahora, tras caer en las redes del FBI, se ve forzado a salir a la luz del día para unir sus fuerzas con un clan de humanos cazadores de vampiros que nunca supo que existían, los Nightstalkers. Junto a Abigail y Hannibal, Blade sigue la pista de una Antigua criatura que lo está acechando el vampiro original: Drácula.
























La pelicula NO tiene ninguna marca... solo colocamos el nombre de esta web en las capturas






Código:
General
Format                                   : Matroska
Format version                           : Version 2
File size                                : 3.09 GiB
Duration                                 : 2h 2mn
Overall bit rate                         : 3 614 Kbps
Movie name                               : www.club-hd.com
Encoded date                             : UTC 2013-02-24 02:06:16
Writing application                      : mkvmerge v5.7.0 ('The Whirlwind') built on Jul  8 2012 20:08:51
Writing library                          : libebml v1.2.3 + libmatroska v1.3.0

Video
ID                                       : 1
Format                                   : AVC
Format/Info                              : Advanced Video Codec
Format profile                           : High@L4.1
Format settings, CABAC                   : Yes
Format settings, ReFrames                : 8 frames
Codec ID                                 : V_MPEG4/ISO/AVC
Duration                                 : 2h 2mn
Bit rate                                 : 3 000 Kbps
Width                                    : 1 280 pixels
Height                                   : 544 pixels
Display aspect ratio                     : 2.35:1
Original display aspect ratio            : 2.35:1
Frame rate mode                          : Constant
Frame rate                               : 23.976 fps
Color space                              : YUV
Chroma subsampling                       : 4:2:0
Bit depth                                : 8 bits
Scan type                                : Progressive
Bits/(Pixel*Frame)                       : 0.180
Stream size                              : 2.48 GiB (80%)
Title                                    : www.club-hd.com
Writing library                          : x264 core 120
Language                                 : English
Default                                  : Yes
Forced                                   : No
Color primaries                          : BT.709
Transfer characteristics                 : BT.709
Matrix coefficients                      : BT.709

Audio #1
ID                                       : 2
Format                                   : AC-3
Format/Info                              : Audio Coding 3
Mode extension                           : CM (complete main)
Format settings, Endianness              : Big
Codec ID                                 : A_AC3
Duration                                 : 2h 2mn
Bit rate mode                            : Constant
Bit rate                                 : 192 Kbps
Channel(s)                               : 2 channels
Channel positions                        : Front: L R
Sampling rate                            : 48.0 KHz
Bit depth                                : 16 bits
Compression mode                         : Lossy
Stream size                              : 168 MiB (5%)
Title                                    : www.club-hd.com  >>  Latino
Language                                 : Spanish
Default                                  : Yes
Forced                                   : No

Audio #2
ID                                       : 3
Format                                   : AC-3
Format/Info                              : Audio Coding 3
Mode extension                           : CM (complete main)
Format settings, Endianness              : Big
Codec ID                                 : A_AC3
Duration                                 : 2h 2mn
Bit rate mode                            : Constant
Bit rate                                 : 448 Kbps
Channel(s)                               : 6 channels
Channel positions                        : Front: L C R, Side: L R, LFE
Sampling rate                            : 48.0 KHz
Bit depth                                : 16 bits
Compression mode                         : Lossy
Stream size                              : 392 MiB (12%)
Title                                    : www.club-hd.com  >>  Inglés
Language                                 : English
Default                                  : No
Forced                                   : No

Text
ID                                       : 4
Format                                   : UTF-8
Codec ID                                 : S_TEXT/UTF8
Codec ID/Info                            : UTF-8 Plain Text
Language                                 : Spanish
Default                                  : No
Forced                                   : No

Menu
00:00:00.000                             : en:Chapter 1
00:06:47.573                             : en:Chapter 2
00:12:59.445                             : en:Chapter 3
00:17:16.285                             : en:Chapter 4
00:18:48.502                             : en:Chapter 5
00:22:48.450                             : en:Chapter 6
00:27:05.790                             : en:Chapter 7
00:34:23.019                             : en:Chapter 8
00:41:07.756                             : en:Chapter 9
00:45:41.155                             : en:Chapter 10
00:50:56.094                             : en:Chapter 11
00:54:10.956                             : en:Chapter 12
00:58:08.109                             : en:Chapter 13
01:08:05.331                             : en:Chapter 14
01:17:54.836                             : en:Chapter 15
01:22:00.040                             : en:Chapter 16
01:28:32.098                             : en:Chapter 17
01:33:30.354                             : en:Chapter 18
01:41:31.919                             : en:Chapter 19
01:46:13.158                             : en:Chapter 20
01:50:45.013                             : en:Chapter 21
01:53:52.075                             : en:Chapter 22










Enlaces de Mega y Fireload solo disponibles para Miembros VIP

Compra tu Membresía VIP y apoya a Club-HD!

ATENCIÓN! Tenemos TODO el material de Club-HD disponible por Mega y Fireload, enlaces 100% activos y online hasta la fecha

Llévate tus cuentas Mega PRO II gratis con tu membresía VIP!
Todos los posts vivos con links de Mega y Fireload.
Todo el material de Club-HD desbloqueado y sin publicidad.

Click Aquí para más información.




Enlaces de Mega y Fireload solo disponibles para Miembros VIP

Compra tu Membresía VIP y apoya a Club-HD!

ATENCIÓN! Tenemos TODO el material de Club-HD disponible por Mega y Fireload, enlaces 100% activos y online hasta la fecha

Llévate tus cuentas Mega PRO II gratis con tu membresía VIP!
Todos los posts vivos con links de Mega y Fireload.
Todo el material de Club-HD desbloqueado y sin publicidad.

Click Aquí para más información.



Enlaces de Mega y Fireload solo disponibles para Miembros VIP

Compra tu Membresía VIP y apoya a Club-HD!

ATENCIÓN! Tenemos TODO el material de Club-HD disponible por Mega y Fireload, enlaces 100% activos y online hasta la fecha

Llévate tus cuentas Mega PRO II gratis con tu membresía VIP!
Todos los posts vivos con links de Mega y Fireload.
Todo el material de Club-HD desbloqueado y sin publicidad.

Click Aquí para más información.



Para ver este contenido oculto, debes dar click en una de las siguientes reacciones : Like Like, Love Love, Haha Haha, Wow Wow, Sad Sad, Angry Angry
 
Última edición:

Usuarios Que Están Viendo Este Tema (Total: 1, Miembros: 0, Invitados: 1)

Arriba