• Este aviso va dirigido a todos los nuevos miembros recien llegados a Club-HD. Les recordamos que la direccion URL de este sitio web es , asi que deben acceder únicamente por esta URL. Sean todos bienvenidos al Club!

Brahms: The Boy II (2020) 1080p AMZN WEB-DL Dual Latino-Inglés [Subt. Esp] (Terror. Thriller)

Dante Inferno

🔥Dante Inferno🔥
Miembro del Staff
Moderador
Uploader
Registrado
24 May 2016
Mensajes
618
Puntos de reacción
13,017
Puntos
93
Ubicación
Argentina
Sitio web
club-hd.com
Brahms: The Boy II 2020



SINOPSIS

Una joven familia se muda a una mansión sin ser conscientes de la aterradora historia que ha marcado su historial durante décadas. Allí, el miembro más joven de la familia hace un nuevo amigo: un muñeco con forma humana al que llama "Brahms". (FILMAFFINITY)

MÁS INFORMACIÓN




TRAILER



CAPTURAS

Brahms: The Boy II 2020


Brahms: The Boy II 2020



MEDIAINFO

Código:
General
Complete name                            : Brahms The Boy II (2020) 1080p AMZN WEB-DL Dual Latino-Inglés [Subt. Esp].mkv
Format                                   : Matroska
Format version                           : Version 4
File size                                : 3.56 GiB
Duration                                 : 1 h 26 min
Overall bit rate                         : 5 893 kb/s
Movie name                               : Brahms: The Boy II (2020) 1080p AMZN WEB-DL Dual Latino-Inglés [Subt. Esp] [www.club-hd.com]
Encoded date                             : UTC 2020-04-03 22:34:00
Writing application                      : mkvmerge v27.0.0 ('Metropolis') 64-bit
Writing library                          : libebml v1.3.6 + libmatroska v1.4.9

Video
ID                                       : 1
Format                                   : AVC
Format/Info                              : Advanced Video Codec
Format profile                           : High@L4
Format settings                          : CABAC / 4 Ref Frames
Format settings, CABAC                   : Yes
Format settings, Reference frames        : 4 frames
Codec ID                                 : V_MPEG4/ISO/AVC
Duration                                 : 1 h 26 min
Bit rate mode                            : Constant
Bit rate                                 : 4 802 kb/s
Nominal bit rate                         : 10 000 kb/s
Width                                    : 1 920 pixels
Height                                   : 800 pixels
Display aspect ratio                     : 2.40:1
Frame rate mode                          : Constant
Frame rate                               : 23.976 (24000/1001) FPS
Color space                              : YUV
Chroma subsampling                       : 4:2:0
Bit depth                                : 8 bits
Scan type                                : Progressive
Bits/(Pixel*Frame)                       : 0.130
Stream size                              : 2.90 GiB (81%)
Title                                    : Brahms: The Boy II (2020) 1080p AMZN WEB-DL Dual Latino-Inglés [Subt. Esp]
Language                                 : English
Default                                  : Yes
Forced                                   : No
Color range                              : Limited
Color primaries                          : BT.709
Transfer characteristics                 : BT.709
Matrix coefficients                      : BT.709

Audio #1
ID                                       : 2
Format                                   : AC-3
Format/Info                              : Audio Coding 3
Commercial name                          : Dolby Digital
Codec ID                                 : A_AC3
Duration                                 : 1 h 26 min
Bit rate mode                            : Constant
Bit rate                                 : 448 kb/s
Channel(s)                               : 6 channels
Channel layout                           : L R C LFE Ls Rs
Sampling rate                            : 48.0 kHz
Frame rate                               : 31.250 FPS (1536 SPF)
Compression mode                         : Lossy
Stream size                              : 277 MiB (8%)
Title                                    : Español Latino (Amazon)
Language                                 : Spanish
Service kind                             : Complete Main
Default                                  : Yes
Forced                                   : No

Audio #2
ID                                       : 3
Format                                   : E-AC-3
Format/Info                              : Enhanced AC-3
Commercial name                          : Dolby Digital Plus
Codec ID                                 : A_EAC3
Duration                                 : 1 h 26 min
Bit rate mode                            : Constant
Bit rate                                 : 640 kb/s
Channel(s)                               : 6 channels
Channel layout                           : L R C LFE Ls Rs
Sampling rate                            : 48.0 kHz
Frame rate                               : 31.250 FPS (1536 SPF)
Compression mode                         : Lossy
Stream size                              : 396 MiB (11%)
Title                                    : Inglés
Language                                 : English
Service kind                             : Complete Main
Default                                  : No
Forced                                   : No

Text
ID                                       : 4
Format                                   : UTF-8
Codec ID                                 : S_TEXT/UTF8
Codec ID/Info                            : UTF-8 Plain Text
Duration                                 : 1 h 19 min
Bit rate                                 : 47 b/s
Count of elements                        : 885
Stream size                              : 27.8 KiB (0%)
Title                                    : Subtítulos Español
Language                                 : Spanish
Default                                  : No
Forced                                   : No

Subtítulos mejorados, sincronizados línea a línea, incluye forzados por Clasaase aquí


CONTRASEÑA




DESCARGAR

Todos los links son Intercambiables




Enlaces de Mega y Google Drive solo disponibles para Miembros VIP

Compra tu Membresía VIP y apoya a Club-HD!

ATENCIÓN! Tenemos TODO el material de Club-HD disponible por Mega y Google Drive, enlaces 100% activos y online hasta la fecha

Llévate tus cuentas Mega PRO II gratis con tu membresía VIP!
Todos los posts vivos con links de Mega y Google Drive.
Todo el material de Club-HD desbloqueado y sin publicidad.

Click Aquí para más información.



Enlaces de Mega y Google Drive solo disponibles para Miembros VIP

Compra tu Membresía VIP y apoya a Club-HD!

ATENCIÓN! Tenemos TODO el material de Club-HD disponible por Mega y Google Drive, enlaces 100% activos y online hasta la fecha

Llévate tus cuentas Mega PRO II gratis con tu membresía VIP!
Todos los posts vivos con links de Mega y Google Drive.
Todo el material de Club-HD desbloqueado y sin publicidad.

Click Aquí para más información.



Para ver este contenido oculto, debes dar click en una de las siguientes reacciones: Like Like, Love Love, Haha Haha, Wow Wow, Sad Sad, Angry Angry



Para ver este contenido oculto, debes dar click en una de las siguientes reacciones: Like Like, Love Love, Haha Haha, Wow Wow, Sad Sad, Angry Angry



Para ver este contenido oculto, debes dar click en una de las siguientes reacciones: Like Like, Love Love, Haha Haha, Wow Wow, Sad Sad, Angry Angry
 
Última edición por un moderador:

galiel38

Active member
Registrado
28 Sep 2012
Mensajes
710
Puntos de reacción
87
Puntos
28
Edad
32
Gracias por la película.
 

juancvip

Member
Registrado
3 Mar 2015
Mensajes
249
Puntos de reacción
19
Puntos
18
Edad
42
Muchas Gracias, excelente aporte :)
 

flujo

Well-known member
Registrado
28 Dic 2014
Mensajes
6,955
Puntos de reacción
231
Puntos
83
Brahms: The Boy II 2020



SINOPSIS

Una joven familia se muda a una mansión sin ser conscientes de la aterradora historia que ha marcado su historial durante décadas. Allí, el miembro más joven de la familia hace un nuevo amigo: un muñeco con forma humana al que llama "Brahms". (FILMAFFINITY)

MÁS INFORMACIÓN




TRAILER



CAPTURAS

Brahms: The Boy II 2020


Brahms: The Boy II 2020



MEDIAINFO

Código:
General
Complete name                            : Brahms The Boy II (2020) 1080p AMZN WEB-DL Dual Latino-Inglés [Subt. Esp].mkv
Format                                   : Matroska
Format version                           : Version 4
File size                                : 3.56 GiB
Duration                                 : 1 h 26 min
Overall bit rate                         : 5 893 kb/s
Movie name                               : Brahms: The Boy II (2020) 1080p AMZN WEB-DL Dual Latino-Inglés [Subt. Esp] [www.club-hd.com]
Encoded date                             : UTC 2020-04-03 22:34:00
Writing application                      : mkvmerge v27.0.0 ('Metropolis') 64-bit
Writing library                          : libebml v1.3.6 + libmatroska v1.4.9

Video
ID                                       : 1
Format                                   : AVC
Format/Info                              : Advanced Video Codec
Format profile                           : High@L4
Format settings                          : CABAC / 4 Ref Frames
Format settings, CABAC                   : Yes
Format settings, Reference frames        : 4 frames
Codec ID                                 : V_MPEG4/ISO/AVC
Duration                                 : 1 h 26 min
Bit rate mode                            : Constant
Bit rate                                 : 4 802 kb/s
Nominal bit rate                         : 10 000 kb/s
Width                                    : 1 920 pixels
Height                                   : 800 pixels
Display aspect ratio                     : 2.40:1
Frame rate mode                          : Constant
Frame rate                               : 23.976 (24000/1001) FPS
Color space                              : YUV
Chroma subsampling                       : 4:2:0
Bit depth                                : 8 bits
Scan type                                : Progressive
Bits/(Pixel*Frame)                       : 0.130
Stream size                              : 2.90 GiB (81%)
Title                                    : Brahms: The Boy II (2020) 1080p AMZN WEB-DL Dual Latino-Inglés [Subt. Esp]
Language                                 : English
Default                                  : Yes
Forced                                   : No
Color range                              : Limited
Color primaries                          : BT.709
Transfer characteristics                 : BT.709
Matrix coefficients                      : BT.709

Audio #1
ID                                       : 2
Format                                   : AC-3
Format/Info                              : Audio Coding 3
Commercial name                          : Dolby Digital
Codec ID                                 : A_AC3
Duration                                 : 1 h 26 min
Bit rate mode                            : Constant
Bit rate                                 : 448 kb/s
Channel(s)                               : 6 channels
Channel layout                           : L R C LFE Ls Rs
Sampling rate                            : 48.0 kHz
Frame rate                               : 31.250 FPS (1536 SPF)
Compression mode                         : Lossy
Stream size                              : 277 MiB (8%)
Title                                    : Español Latino (Amazon)
Language                                 : Spanish
Service kind                             : Complete Main
Default                                  : Yes
Forced                                   : No

Audio #2
ID                                       : 3
Format                                   : E-AC-3
Format/Info                              : Enhanced AC-3
Commercial name                          : Dolby Digital Plus
Codec ID                                 : A_EAC3
Duration                                 : 1 h 26 min
Bit rate mode                            : Constant
Bit rate                                 : 640 kb/s
Channel(s)                               : 6 channels
Channel layout                           : L R C LFE Ls Rs
Sampling rate                            : 48.0 kHz
Frame rate                               : 31.250 FPS (1536 SPF)
Compression mode                         : Lossy
Stream size                              : 396 MiB (11%)
Title                                    : Inglés
Language                                 : English
Service kind                             : Complete Main
Default                                  : No
Forced                                   : No

Text
ID                                       : 4
Format                                   : UTF-8
Codec ID                                 : S_TEXT/UTF8
Codec ID/Info                            : UTF-8 Plain Text
Duration                                 : 1 h 19 min
Bit rate                                 : 47 b/s
Count of elements                        : 885
Stream size                              : 27.8 KiB (0%)
Title                                    : Subtítulos Español
Language                                 : Spanish
Default                                  : No
Forced                                   : No

CONTRASEÑA




DESCARGAR

Todos los links son Intercambiables




[Hidden content]




[Hidden content]




[Hidden content]




[Hidden content]




[Hidden content]
gracias
 

HSolo

Member
Registrado
24 Jun 2017
Mensajes
167
Puntos de reacción
13
Puntos
18
Muchas gracias. La primera película me gusto bastante. Espero que esta segunda parte esté al mismo nivel.
 

tetico1

Member
Registrado
9 Sep 2012
Mensajes
229
Puntos de reacción
1
Puntos
18
Brahms: The Boy II 2020



SINOPSIS

Una joven familia se muda a una mansión sin ser conscientes de la aterradora historia que ha marcado su historial durante décadas. Allí, el miembro más joven de la familia hace un nuevo amigo: un muñeco con forma humana al que llama "Brahms". (FILMAFFINITY)

MÁS INFORMACIÓN




TRAILER



CAPTURAS

Brahms: The Boy II 2020


Brahms: The Boy II 2020



MEDIAINFO

Código:
General
Complete name                            : Brahms The Boy II (2020) 1080p AMZN WEB-DL Dual Latino-Inglés [Subt. Esp].mkv
Format                                   : Matroska
Format version                           : Version 4
File size                                : 3.56 GiB
Duration                                 : 1 h 26 min
Overall bit rate                         : 5 893 kb/s
Movie name                               : Brahms: The Boy II (2020) 1080p AMZN WEB-DL Dual Latino-Inglés [Subt. Esp] [www.club-hd.com]
Encoded date                             : UTC 2020-04-03 22:34:00
Writing application                      : mkvmerge v27.0.0 ('Metropolis') 64-bit
Writing library                          : libebml v1.3.6 + libmatroska v1.4.9

Video
ID                                       : 1
Format                                   : AVC
Format/Info                              : Advanced Video Codec
Format profile                           : High@L4
Format settings                          : CABAC / 4 Ref Frames
Format settings, CABAC                   : Yes
Format settings, Reference frames        : 4 frames
Codec ID                                 : V_MPEG4/ISO/AVC
Duration                                 : 1 h 26 min
Bit rate mode                            : Constant
Bit rate                                 : 4 802 kb/s
Nominal bit rate                         : 10 000 kb/s
Width                                    : 1 920 pixels
Height                                   : 800 pixels
Display aspect ratio                     : 2.40:1
Frame rate mode                          : Constant
Frame rate                               : 23.976 (24000/1001) FPS
Color space                              : YUV
Chroma subsampling                       : 4:2:0
Bit depth                                : 8 bits
Scan type                                : Progressive
Bits/(Pixel*Frame)                       : 0.130
Stream size                              : 2.90 GiB (81%)
Title                                    : Brahms: The Boy II (2020) 1080p AMZN WEB-DL Dual Latino-Inglés [Subt. Esp]
Language                                 : English
Default                                  : Yes
Forced                                   : No
Color range                              : Limited
Color primaries                          : BT.709
Transfer characteristics                 : BT.709
Matrix coefficients                      : BT.709

Audio #1
ID                                       : 2
Format                                   : AC-3
Format/Info                              : Audio Coding 3
Commercial name                          : Dolby Digital
Codec ID                                 : A_AC3
Duration                                 : 1 h 26 min
Bit rate mode                            : Constant
Bit rate                                 : 448 kb/s
Channel(s)                               : 6 channels
Channel layout                           : L R C LFE Ls Rs
Sampling rate                            : 48.0 kHz
Frame rate                               : 31.250 FPS (1536 SPF)
Compression mode                         : Lossy
Stream size                              : 277 MiB (8%)
Title                                    : Español Latino (Amazon)
Language                                 : Spanish
Service kind                             : Complete Main
Default                                  : Yes
Forced                                   : No

Audio #2
ID                                       : 3
Format                                   : E-AC-3
Format/Info                              : Enhanced AC-3
Commercial name                          : Dolby Digital Plus
Codec ID                                 : A_EAC3
Duration                                 : 1 h 26 min
Bit rate mode                            : Constant
Bit rate                                 : 640 kb/s
Channel(s)                               : 6 channels
Channel layout                           : L R C LFE Ls Rs
Sampling rate                            : 48.0 kHz
Frame rate                               : 31.250 FPS (1536 SPF)
Compression mode                         : Lossy
Stream size                              : 396 MiB (11%)
Title                                    : Inglés
Language                                 : English
Service kind                             : Complete Main
Default                                  : No
Forced                                   : No

Text
ID                                       : 4
Format                                   : UTF-8
Codec ID                                 : S_TEXT/UTF8
Codec ID/Info                            : UTF-8 Plain Text
Duration                                 : 1 h 19 min
Bit rate                                 : 47 b/s
Count of elements                        : 885
Stream size                              : 27.8 KiB (0%)
Title                                    : Subtítulos Español
Language                                 : Spanish
Default                                  : No
Forced                                   : No

CONTRASEÑA




DESCARGAR

Todos los links son Intercambiables




[Hidden content]




[Hidden content]




[Hidden content]




[Hidden content]




[Hidden content]
descargando pelis gracias
 

cripp

Well-known member
Registrado
27 Ago 2012
Mensajes
8,223
Puntos de reacción
497
Puntos
113
Gracias por compartir
 

Usuarios Que Están Viendo Este Tema (Total: 1, Miembros: 0, Invitados: 1)

Arriba