Brave (2012) 1080p BDRip Dual Latino-Inglés [Subt. Esp-Ing] (Animación. Aventura)

Maestro Revolver

Well-known member
Miembro del Staff
Administrador
Registro
9 Ago 2012
Mensajes
3.567








TÍTULO ORIGINAL: Brave
AÑO: 2012
DURACIÓN: 100 min.
PAÍS: USA
DIRECTOR: Mark Andrews, Brenda Chapman, Steve Purcell
GUIÓN: Mark Andrews, Steve Purcell, Brenda Chapman, Irene Mecchi (Historia: Brenda Chapman)
REPARTO: Animation
PRODUCTORA: Pixar Animation Studios / Walt Disney Pictures
GÉNERO: Animación. Aventuras. Fantástico. Comedia | Fantasía medieval. Cine familiar. 3-D
http://www.imdb.com/title/tt1217209/






Merida, la indómita hija del Rey Fergus y de la Reina Elinor, es una hábil arquera que decide romper con una antigua costumbre, que es sagrada para los señores de la tierra: el gigantesco Lord MacGuffin, el malhumorado Lord Macintosh y el cascarrabias Lord Dingwall. Las acciones de Merida desencadenan el caos y la furia en el reino. Además, pide ayuda a una sabia anciana que le concede un deseo muy desafortunado. La muchacha tendrá que afrontar grandes peligros antes de aprender qué es la auténtica valentía.
























La pelicula NO tiene ninguna marca... solo colocamos el nombre de esta web en las capturas






Código:
General
Format                           : Matroska
Format version                   : Version 2
File size                        : 7.12 GiB
Duration                         : 1h 34mn
Overall bit rate                 : 10.8 Mbps
Movie name                       : www.club-hd.com
Encoded date                     : UTC 2012-11-03 14:52:51
Writing application              : mkvmerge v5.7.0 ('The Whirlwind') built on Jul  8 2012 20:08:51
Writing library                  : libebml v1.2.3 + libmatroska v1.3.0

Video
ID                               : 1
Format                           : AVC
Format/Info                      : Advanced Video Codec
Format profile                   : High@L4.1
Format settings, CABAC           : Yes
Format settings, ReFrames        : 5 frames
Codec ID                         : V_MPEG4/ISO/AVC
Duration                         : 1h 34mn
Bit rate                         : 9 600 Kbps
Width                            : 1 920 pixels
Height                           : 804 pixels
Display aspect ratio             : 2.40:1
Frame rate                       : 23.976 fps
Color space                      : YUV
Chroma subsampling               : 4:2:0
Bit depth                        : 8 bits
Scan type                        : Progressive
Bits/(Pixel*Frame)               : 0.259
Stream size                      : 6.14 GiB (86%)
Title                            : www.club-hd.com
Writing library                  : x264 core 128 r2216+688+33 06dac27 tMod+MixAQ [8-bit@4:2:0 X86_64]
Language                         : English
Default                          : Yes
Forced                           : No

Audio #1
ID                               : 2
Format                           : AC-3
Format/Info                      : Audio Coding 3
Mode extension                   : CM (complete main)
Codec ID                         : A_AC3
Duration                         : 1h 34mn
Bit rate mode                    : Constant
Bit rate                         : 640 Kbps
Channel(s)                       : 6 channels
Channel positions                : Front: L C R, Side: L R, LFE
Sampling rate                    : 48.0 KHz
Bit depth                        : 16 bits
Compression mode                 : Lossy
Stream size                      : 431 MiB (6%)
Title                            : www.club-hd.com  >>  Latino
Language                         : Spanish
Default                          : Yes
Forced                           : No

Audio #2
ID                               : 3
Format                           : AC-3
Format/Info                      : Audio Coding 3
Mode extension                   : CM (complete main)
Codec ID                         : A_AC3
Duration                         : 1h 34mn
Bit rate mode                    : Constant
Bit rate                         : 640 Kbps
Channel(s)                       : 6 channels
Channel positions                : Front: L C R, Side: L R, LFE
Sampling rate                    : 48.0 KHz
Bit depth                        : 16 bits
Compression mode                 : Lossy
Stream size                      : 431 MiB (6%)
Title                            : www.club-hd.com  >>  Inglés
Language                         : English
Default                          : No
Forced                           : No

Text #1
ID                               : 4
Format                           : UTF-8
Codec ID                         : S_TEXT/UTF8
Codec ID/Info                    : UTF-8 Plain Text
Language                         : Spanish
Default                          : No
Forced                           : No

Text #2
ID                               : 5
Format                           : UTF-8
Codec ID                         : S_TEXT/UTF8
Codec ID/Info                    : UTF-8 Plain Text
Language                         : English
Default                          : No
Forced                           : No

Menu
00:00:00.000                     : en:00:00:00.000
00:04:22.846                     : en:00:04:22.846
00:09:17.432                     : en:00:09:17.432
00:12:53.356                     : en:00:12:53.356
00:14:00.256                     : en:00:14:00.256
00:16:10.469                     : en:00:16:10.469
00:17:36.681                     : en:00:17:36.681
00:22:55.791                     : en:00:22:55.791
00:27:22.891                     : en:00:27:22.891
00:28:51.229                     : en:00:28:51.229
00:30:54.853                     : en:00:30:54.853
00:34:00.372                     : en:00:34:00.372
00:36:03.495                     : en:00:36:03.495
00:39:06.928                     : en:00:39:06.928
00:41:55.096                     : en:00:41:55.096
00:43:27.980                     : en:00:43:27.980
00:47:05.740                     : en:00:47:05.740
00:48:22.358                     : en:00:48:22.358
00:51:04.061                     : en:00:51:04.061
00:52:33.859                     : en:00:52:33.859
00:54:01.155                     : en:00:54:01.155
00:54:45.699                     : en:00:54:45.699
00:57:30.864                     : en:00:57:30.864
00:59:00.162                     : en:00:59:00.162
01:02:48.181                     : en:01:02:48.181
01:03:27.387                     : en:01:03:27.387
01:09:57.735                     : en:01:09:57.735
01:10:37.275                     : en:01:10:37.275
01:12:35.726                     : en:01:12:35.726
01:13:39.498                     : en:01:13:39.498
01:15:35.489                     : en:01:15:35.489
01:16:59.073                     : en:01:16:59.073
01:17:37.111                     : en:01:17:37.111
01:19:48.200                     : en:01:19:48.200
01:23:16.783                     : en:01:23:16.783
01:24:38.657                     : en:01:24:38.657
01:32:52.567                     : en:01:32:52.567











Enlaces de Mega y Google Drive solo disponibles para Miembros VIP

Compra tu Membresía VIP y apoya a Club-HD!

ATENCIÓN! Tenemos TODO el material de Club-HD disponible por Mega y Google Drive, enlaces 100% activos y online hasta la fecha

Llévate tus cuentas Mega PRO III gratis con tu membresía VIP!
Todos los posts vivos con links de Mega y Google Drive.
Todo el material de Club-HD desbloqueado y sin publicidad.

Click Aquí para más información.



Enlaces de Mega y Google Drive solo disponibles para Miembros VIP

Compra tu Membresía VIP y apoya a Club-HD!

ATENCIÓN! Tenemos TODO el material de Club-HD disponible por Mega y Google Drive, enlaces 100% activos y online hasta la fecha

Llévate tus cuentas Mega PRO III gratis con tu membresía VIP!
Todos los posts vivos con links de Mega y Google Drive.
Todo el material de Club-HD desbloqueado y sin publicidad.

Click Aquí para más información.




Enlaces de Mega y Google Drive solo disponibles para Miembros VIP

Compra tu Membresía VIP y apoya a Club-HD!

ATENCIÓN! Tenemos TODO el material de Club-HD disponible por Mega y Google Drive, enlaces 100% activos y online hasta la fecha

Llévate tus cuentas Mega PRO III gratis con tu membresía VIP!
Todos los posts vivos con links de Mega y Google Drive.
Todo el material de Club-HD desbloqueado y sin publicidad.

Click Aquí para más información.



Para ver este contenido oculto, debes dar click en una de las siguientes reacciones : Like Like, Love Love, Haha Haha, Wow Wow, Sad Sad, Angry Angry
 
Última edición por un moderador:

Joker

Well-known member
Miembro del Staff
Súper Moderador
Registro
27 Ago 2012
Mensajes
1.349
Ubicación
Arkham Asylum
Desc_g_

Esta la pedía mi hermana hace tiempo, eres grande Revolver!!!

Gracias!!!

Sañudos :D
 

Usuarios Que Están Viendo Este Tema (Total: 1, Miembros: 0, Invitados: 1)

Quién Leyó Este Tema (Total Miembros: 5)

Arriba