Brave (2012) m-720p Dual Latino-Inglés [Subt. Esp-Ing] (Animación. Aventura)

Maestro Revolver

Well-known member
Miembro del Staff
Administrador
Registro
9 Ago 2012
Mensajes
3.569
Reacciones
59.341
Puntos
113

Reputation:









TÍTULO ORIGINAL: Brave
AÑO: 2012
DURACIÓN: 100 min.
PAÍS: USA
DIRECTOR: Mark Andrews, Brenda Chapman, Steve Purcell
GUIÓN: Mark Andrews, Steve Purcell, Brenda Chapman, Irene Mecchi (Historia: Brenda Chapman)
REPARTO: Animation
PRODUCTORA: Pixar Animation Studios / Walt Disney Pictures
GÉNERO: Animación. Aventuras. Fantástico. Comedia | Fantasía medieval. Cine familiar. 3-D
http://www.imdb.com/title/tt1217209/






Merida, la indómita hija del Rey Fergus y de la Reina Elinor, es una hábil arquera que decide romper con una antigua costumbre, que es sagrada para los señores de la tierra: el gigantesco Lord MacGuffin, el malhumorado Lord Macintosh y el cascarrabias Lord Dingwall. Las acciones de Merida desencadenan el caos y la furia en el reino. Además, pide ayuda a una sabia anciana que le concede un deseo muy desafortunado. La muchacha tendrá que afrontar grandes peligros antes de aprender qué es la auténtica valentía.
























La pelicula NO tiene ninguna marca... solo colocamos el nombre de esta web en las capturas






Código:
General
Format                           : Matroska
Format version                   : Version 2
File size                        : 2.30 GiB
Duration                         : 1h 34mn
Overall bit rate                 : 3 489 Kbps
Movie name                       : www.club-hd.com
Encoded date                     : UTC 2012-11-03 16:41:50
Writing application              : mkvmerge v5.7.0 ('The Whirlwind') built on Jul  8 2012 20:08:51
Writing library                  : libebml v1.2.3 + libmatroska v1.3.0

Video
ID                               : 1
Format                           : AVC
Format/Info                      : Advanced Video Codec
Format profile                   : High@L4.1
Format settings, CABAC           : Yes
Format settings, ReFrames        : 8 frames
Codec ID                         : V_MPEG4/ISO/AVC
Duration                         : 1h 34mn
Bit rate                         : 2 610 Kbps
Width                            : 1 280 pixels
Height                           : 536 pixels
Display aspect ratio             : 2.40:1
Frame rate                       : 23.976 fps
Color space                      : YUV
Chroma subsampling               : 4:2:0
Bit depth                        : 8 bits
Scan type                        : Progressive
Bits/(Pixel*Frame)               : 0.159
Stream size                      : 1.66 GiB (72%)
Title                            : www.club-hd.com
Writing library                  : x264 core 128 r2216 198a7ea
Language                         : English
Default                          : Yes
Forced                           : No

Audio #1
ID                               : 2
Format                           : AC-3
Format/Info                      : Audio Coding 3
Mode extension                   : CM (complete main)
Codec ID                         : A_AC3
Duration                         : 1h 34mn
Bit rate mode                    : Constant
Bit rate                         : 448 Kbps
Channel(s)                       : 6 channels
Channel positions                : Front: L C R, Side: L R, LFE
Sampling rate                    : 48.0 KHz
Bit depth                        : 16 bits
Compression mode                 : Lossy
Stream size                      : 302 MiB (13%)
Title                            : www.club-hd.com  >>  Latino
Language                         : Spanish
Default                          : Yes
Forced                           : No

Audio #2
ID                               : 3
Format                           : AC-3
Format/Info                      : Audio Coding 3
Mode extension                   : CM (complete main)
Codec ID                         : A_AC3
Duration                         : 1h 34mn
Bit rate mode                    : Constant
Bit rate                         : 448 Kbps
Channel(s)                       : 6 channels
Channel positions                : Front: L C R, Side: L R, LFE
Sampling rate                    : 48.0 KHz
Bit depth                        : 16 bits
Compression mode                 : Lossy
Stream size                      : 302 MiB (13%)
Title                            : www.club-hd.com  >>  Inglés
Language                         : English
Default                          : No
Forced                           : No

Text #1
ID                               : 4
Format                           : UTF-8
Codec ID                         : S_TEXT/UTF8
Codec ID/Info                    : UTF-8 Plain Text
Language                         : Spanish
Default                          : No
Forced                           : No

Text #2
ID                               : 5
Format                           : UTF-8
Codec ID                         : S_TEXT/UTF8
Codec ID/Info                    : UTF-8 Plain Text
Language                         : English
Default                          : No
Forced                           : No

Menu
00:00:00.000                     : en:Chapter 1
00:04:22.846                     : en:Chapter 2
00:09:17.432                     : en:Chapter 3
00:12:53.356                     : en:Chapter 4
00:14:00.256                     : en:Chapter 5
00:16:10.469                     : en:Chapter 6
00:17:36.681                     : en:Chapter 7
00:22:55.791                     : en:Chapter 8
00:27:22.891                     : en:Chapter 9
00:28:51.229                     : en:Chapter 10
00:30:54.853                     : en:Chapter 11
00:34:00.372                     : en:Chapter 12
00:36:03.495                     : en:Chapter 13
00:39:06.928                     : en:Chapter 14
00:41:55.096                     : en:Chapter 15
00:43:27.980                     : en:Chapter 16
00:47:05.740                     : en:Chapter 17
00:48:22.358                     : en:Chapter 18
00:51:04.061                     : en:Chapter 19
00:52:33.859                     : en:Chapter 20
00:54:01.155                     : en:Chapter 21
00:54:45.699                     : en:Chapter 22
00:57:30.864                     : en:Chapter 23
00:59:00.162                     : en:Chapter 24
01:02:48.181                     : en:Chapter 25
01:03:27.387                     : en:Chapter 26
01:09:57.735                     : en:Chapter 27
01:10:37.275                     : en:Chapter 28
01:12:35.726                     : en:Chapter 29
01:13:39.498                     : en:Chapter 30
01:15:35.489                     : en:Chapter 31
01:16:59.073                     : en:Chapter 32
01:17:37.111                     : en:Chapter 33
01:19:48.200                     : en:Chapter 34
01:23:16.783                     : en:Chapter 35
01:24:38.657                     : en:Chapter 36
01:32:52.567                     : en:Chapter 37











Enlaces de Mega y Fireload solo disponibles para Miembros VIP

Compra tu Membresía VIP y apoya a Club-HD!

ATENCIÓN! Tenemos TODO el material de Club-HD disponible por Mega y Fireload, enlaces 100% activos y online hasta la fecha

Llévate tus cuentas Mega PRO II gratis con tu membresía VIP!
Todos los posts vivos con links de Mega y Fireload.
Todo el material de Club-HD desbloqueado y sin publicidad.

Click Aquí para más información.



Enlaces de Mega y Fireload solo disponibles para Miembros VIP

Compra tu Membresía VIP y apoya a Club-HD!

ATENCIÓN! Tenemos TODO el material de Club-HD disponible por Mega y Fireload, enlaces 100% activos y online hasta la fecha

Llévate tus cuentas Mega PRO II gratis con tu membresía VIP!
Todos los posts vivos con links de Mega y Fireload.
Todo el material de Club-HD desbloqueado y sin publicidad.

Click Aquí para más información.


Para ver este contenido oculto, debes dar click en una de las siguientes reacciones : Like Like, Love Love, Haha Haha, Wow Wow, Sad Sad, Angry Angry

 
Última edición:

Yonatan

Admin
Miembro del Staff
Administrador
Registro
27 Ago 2012
Mensajes
1.768
Reacciones
3.728
Puntos
113
Edad
28
Ubicación
Chile, Sexta Región

Reputation:

esta era la que estaba esperando mi chica me la a pedido muchas veces creo que esta feliz :D

muy buena revolver gracias men a disfrutar una buena tarde con la animación

:dplgar:
 

koalamesa

New member
Registro
28 Ago 2012
Mensajes
57
Reacciones
1
Puntos
0

Reputation:

Sos un Fenómeno!!! Recién te pregunté en el otro post de 1080p si ibas a subirla en 720p jaja Grande Maestro Gracias!!!
 

Usuarios Que Están Viendo Este Tema (Total: 1, Miembros: 0, Invitados: 1)

Arriba