Bruce Almighty (2003) 720p BDRip Dual Latino-Inglés [Subt. Esp] (Comedia)

Maestro Revolver

Well-known member
Miembro del Staff
Administrador
Registro
9 Ago 2012
Mensajes
3.569
Reacciones
59.366
Puntos
113

Reputation:









TÍTULO ORIGINAL: Bruce Almighty
AÑO: 2003
DURACIÓN: 101 min.
PAÍS: USA
DIRECTOR: Tom Shadyac
GUIÓN: Steve Oedekerk, Mark O'Keefe, Steve Koren
REPARTO: Jim Carrey, Jennifer Aniston, Morgan Freeman, Edward Jemison, Lisa Ann Walter, Catherine Bell, Philip Baker Hall, Nora Dunn, Steve Carell
PRODUCTORA: Universal Pictures
GÉNERO: Comedia. Fantástico
: http://www.imdb.es/title/tt0315327/






Tras pasar el peor día de su vida, el reportero de televisión Bruce Nolan desafía a Dios reprochándole lo mal que está administrando el mundo. Dios acepta el reto, le otorga todos sus poderes y lo conmina a hacerlo mejor que Él.
























La pelicula NO tiene ninguna marca... solo colocamos el nombre de esta web en las capturas






Código:
General
Format                                   : Matroska
Format version                           : Version 2
File size                                : 4.44 GiB
Duration                                 : 1h 41mn
Overall bit rate                         : 6 297 Kbps
Movie name                               : www.club-hd.com
Encoded date                             : UTC 2013-02-11 16:13:10
Writing application                      : mkvmerge v5.7.0 ('The Whirlwind') built on Jul  8 2012 20:08:51
Writing library                          : libebml v1.2.3 + libmatroska v1.3.0

Video
ID                                       : 1
Format                                   : AVC
Format/Info                              : Advanced Video Codec
Format profile                           : High@L4.1
Format settings, CABAC                   : Yes
Format settings, ReFrames                : 9 frames
Codec ID                                 : V_MPEG4/ISO/AVC
Duration                                 : 1h 41mn
Bit rate                                 : 5 400 Kbps
Width                                    : 1 280 pixels
Height                                   : 720 pixels
Display aspect ratio                     : 16:9
Frame rate mode                          : Constant
Frame rate                               : 23.976 fps
Color space                              : YUV
Chroma subsampling                       : 4:2:0
Bit depth                                : 8 bits
Scan type                                : Progressive
Bits/(Pixel*Frame)                       : 0.244
Stream size                              : 3.72 GiB (84%)
Title                                    : www.club-hd.com
Writing library                          : x264 core 115 r1995 c1e60b9
Language                                 : English
Default                                  : Yes
Forced                                   : No

Audio #1
ID                                       : 2
Format                                   : AC-3
Format/Info                              : Audio Coding 3
Mode extension                           : CM (complete main)
Format settings, Endianness              : Big
Codec ID                                 : A_AC3
Duration                                 : 1h 41mn
Bit rate mode                            : Constant
Bit rate                                 : 448 Kbps
Channel(s)                               : 6 channels
Channel positions                        : Front: L C R, Side: L R, LFE
Sampling rate                            : 48.0 KHz
Bit depth                                : 16 bits
Compression mode                         : Lossy
Stream size                              : 324 MiB (7%)
Title                                    : www.club-hd.com  >>  Latino
Language                                 : Spanish
Default                                  : Yes
Forced                                   : No

Audio #2
ID                                       : 3
Format                                   : AC-3
Format/Info                              : Audio Coding 3
Mode extension                           : CM (complete main)
Format settings, Endianness              : Big
Codec ID                                 : A_AC3
Duration                                 : 1h 41mn
Bit rate mode                            : Constant
Bit rate                                 : 448 Kbps
Channel(s)                               : 6 channels
Channel positions                        : Front: L C R, Side: L R, LFE
Sampling rate                            : 48.0 KHz
Bit depth                                : 16 bits
Compression mode                         : Lossy
Stream size                              : 324 MiB (7%)
Title                                    : www.club-hd.com  >>  Inglés
Language                                 : English
Default                                  : No
Forced                                   : No

Text
ID                                       : 4
Format                                   : UTF-8
Codec ID                                 : S_TEXT/UTF8
Codec ID/Info                            : UTF-8 Plain Text
Language                                 : Spanish
Default                                  : No
Forced                                   : No

Menu
00:00:00.000                             : en:CHAPTER01
00:05:46.596                             : en:CHAPTER02
00:09:08.256                             : en:CHAPTER03
00:13:18.798                             : en:CHAPTER04
00:17:22.083                             : en:CHAPTER05
00:23:00.921                             : en:CHAPTER06
00:25:18.684                             : en:CHAPTER07
00:31:40.190                             : en:CHAPTER08
00:41:10.968                             : en:CHAPTER09
00:47:39.857                             : en:CHAPTER10
00:53:03.222                             : en:CHAPTER11
00:55:25.489                             : en:CHAPTER12
00:57:38.246                             : en:CHAPTER13
01:02:43.551                             : en:CHAPTER14
01:13:07.300                             : en:CHAPTER15
01:19:26.261                             : en:CHAPTER16
01:23:41.725                             : en:CHAPTER17
01:25:43.597                             : en:CHAPTER18
01:29:27.445                             : en:CHAPTER19
01:32:38.887                             : en:CHAPTER20










Enlaces de Mega y Fireload solo disponibles para Miembros VIP

Compra tu Membresía VIP y apoya a Club-HD!

ATENCIÓN! Tenemos TODO el material de Club-HD disponible por Mega y Fireload, enlaces 100% activos y online hasta la fecha

Llévate tus cuentas Mega PRO II gratis con tu membresía VIP!
Todos los posts vivos con links de Mega y Fireload.
Todo el material de Club-HD desbloqueado y sin publicidad.

Click Aquí para más información.




Enlaces de Mega y Fireload solo disponibles para Miembros VIP

Compra tu Membresía VIP y apoya a Club-HD!

ATENCIÓN! Tenemos TODO el material de Club-HD disponible por Mega y Fireload, enlaces 100% activos y online hasta la fecha

Llévate tus cuentas Mega PRO II gratis con tu membresía VIP!
Todos los posts vivos con links de Mega y Fireload.
Todo el material de Club-HD desbloqueado y sin publicidad.

Click Aquí para más información.



Para ver este contenido oculto, debes dar click en una de las siguientes reacciones : Like Like, Love Love, Haha Haha, Wow Wow, Sad Sad, Angry Angry

 
Última edición:

Nytrux

Active member
Registro
27 Ago 2012
Mensajes
389
Reacciones
46
Puntos
28

Reputation:

Gracias, quisiera saber cuál de los doblajes es? recuerdo que hicieron 2, pero hay uno que no me gusta. Creo que cambiaron algunos actores de doblaje.
 

Nosferatu

Well-known member
Súper Moderador
Registro
31 Ago 2012
Mensajes
2.275
Reacciones
1.362
Puntos
113
Edad
44
Ubicación
Welcome to Hell!!

Reputation:

Gracias, quisiera saber cuál de los doblajes es? recuerdo que hicieron 2, pero hay uno que no me gusta. Creo que cambiaron algunos actores de doblaje.
Mi amigo, creo que con esa pregunta solo el Master R21! te puede ayudar.

Saludos!!!
 

DoomsDay Elite

Well-known member
Registro
5 Sep 2012
Mensajes
1.225
Reacciones
1.101
Puntos
113

Reputation:

a ver la parte de la falda en hd !!! jajajaajajaja mas de uno lo haría con poder
 

Usuarios Que Están Viendo Este Tema (Total: 1, Miembros: 0, Invitados: 1)

Arriba