• Este aviso va dirigido a todos los nuevos miembros recien llegados a Club-HD. Les recordamos que la direccion URL de este sitio web es , asi que deben acceder únicamente por esta URL. Sean todos bienvenidos al Club!

Captain America: The First Avenger (2011) 2160p 4k UHD HDR Dual Latino-Inglés [Subt. Esp] (Acción. Fantástico)

Brady

Moderador
Miembro del Staff
Moderador
Uploader
Registrado
1 Jun 2016
Mensajes
2,589
Puntos de reacción
40,384
Puntos
113
Edad
24





Título Original: Captain America: The First Avenger
Año: 2011
Duración: 125 min.
País:
United States
Director: Joe Johnston
Guion: Christopher Markus, Stephen McFeely (Cómic: Joe Simon, Jack Kirby)
Reparto: Chris Evans, Hugo Weaving, Hayley Atwell, Tommy Lee Jones, Sebastian Stan, Stanley Tucci, Toby Jones, Dominic Cooper, Neal McDonough, Richard Armitage, David Bradley, Kenneth Choi, Natalie Dormer, Derek Luke, Jenna-Louise Coleman, JJ Feild, Bruno Ricci, Laura Haddock, Samuel L. Jackson
Productora: Paramount Pictures / Marvel Entertainment / Marvel Studios
Género: Acción. Fantástico | Superhéroes. Cómic. Marvel Comics. II Guerra Mundial. 3-D. Nazismo. Steampunk​



Nacido durante la Gran Depresión (años 30), Steve Rogers creció como un chico enclenque en una familia pobre. Horrorizado por las noticias que llegaban de Europa sobre los nazis, decidió enrolarse en el ejército; sin embargo, debido a su precaria salud, fue rechazado una y otra vez. Enternecido por sus súplicas, el General Chester Phillips le ofreció la oportunidad de participar en un experimento especial: la "Operación Renacimiento". Tras administrarle el “Suero Super-Soldado” y bombardearlo con “vitarrayos”, el cuerpo de Steve se hace perfecto. A continuación, se sometió a un intensivo programa de entrenamiento físico y táctico. Tres meses después, le encomendaron su primera misión como Capitán América. Armado con un escudo indestructible, emprenderá la guerra contra el Mal como centinela de la libertad y líder de los Vengadores.




Datos Técnicos
Video:
MPEGH HEVC / 2160p / High Profile 5.1 / 11.7 mbps

Audio:
Español Latino / AC3 Core 5.1 / 576 kbps / 48kHz / Bluray 4k
Español Latino /E-AC3/Core 7.1/5.1 / 1024/576 kbps / 48kHz / Bluray 4k
Inglés / TrueHD/Atmos 7.1 / 4734/7644 kbps / 48kHz / Bluray 4k
Inglés / AC3 5.1 / 640 kbps / 48kHz / Bluray 4k

Subs:
Español Latino / SubRip / Bluray 4k
Español Latino Forzados / SubRip / Bluray 4k
Español Latino / Sup / Bluray 4k
Español Latino Forzados / Sup / Bluray 4k
Inglés / Sup / Bluray 4k

Código:
General
Unique ID                                : 23867605523387143858311398455277941415 (0x11F4BBCE60D16783F0AD5E74C1FA72A7)
Format                                   : Matroska
Format version                           : Version 4
File size                                : 16.3 GiB
Duration                                 : 2 h 4 min
Overall bit rate mode                    : Variable
Overall bit rate                         : 18.8 Mb/s
Encoded date                             : UTC 2019-03-01 09:22:54
Writing application                      : mkvmerge v27.0.0 ('Metropolis') 64-bit
Writing library                          : libebml v1.3.6 + libmatroska v1.4.9
Uploader                                 : Brady
Web                                      : www.club-hd.com

Video
ID                                       : 1
Format                                   : HEVC
Format/Info                              : High Efficiency Video Coding
Commercial name                          : HDR10
Format profile                           : Main 10@L5.1@High
Codec ID                                 : V_MPEGH/ISO/HEVC
Duration                                 : 2 h 4 min
Bit rate                                 : 11.7 Mb/s
Width                                    : 3 840 pixels
Height                                   : 1 600 pixels
Display aspect ratio                     : 2.40:1
Frame rate mode                          : Constant
Frame rate                               : 23.976 (24000/1001) FPS
Color space                              : YUV
Chroma subsampling                       : 4:2:0 (Type 2)
Bit depth                                : 10 bits
Bits/(Pixel*Frame)                       : 0.080
Stream size                              : 10.2 GiB (62%)
Writing library                          : x265 3.0+1-ed72af837053:[Windows][MSVC 1900][64 bit] 10bit
Encoding settings                        : cpuid=1176575 / frame-threads=5 / numa-pools=36 / wpp / no-pmode / no-pme / no-psnr / no-ssim / log-level=2 / input-csp=1 / input-res=3840x1600 / interlace=0 / total-frames=178627 / level-idc=51 / high-tier=1 / uhd-bd=0 / ref=4 / no-allow-non-conformance / repeat-headers / annexb / aud / hrd / info / hash=0 / no-temporal-layers / no-open-gop / min-keyint=24 / keyint=240 / gop-lookahead=0 / bframes=4 / b-adapt=2 / b-pyramid / bframe-bias=0 / rc-lookahead=25 / lookahead-slices=4 / scenecut=40 / radl=0 / no-splice / no-intra-refresh / ctu=64 / min-cu-size=8 / rect / no-amp / max-tu-size=32 / tu-inter-depth=1 / tu-intra-depth=1 / limit-tu=0 / rdoq-level=2 / dynamic-rd=0.00 / no-ssim-rd / signhide / no-tskip / nr-intra=0 / nr-inter=0 / no-constrained-intra / no-strong-intra-smoothing / max-merge=3 / limit-refs=3 / limit-modes / me=3 / subme=3 / merange=57 / temporal-mvp / weightp / no-weightb / no-analyze-src-pics / deblock=-3:-3 / no-sao / no-sao-non-deblock / rd=4 / no-early-skip / rskip / no-fast-intra / no-tskip-fast / no-cu-lossless / no-b-intra / no-splitrd-skip / rdpenalty=0 / psy-rd=2.00 / psy-rdoq=1.00 / no-rd-refine / no-lossless / cbqpoffs=0 / crqpoffs=0 / rc=crf / crf=17.0 / qcomp=0.60 / qpstep=4 / stats-write=0 / stats-read=0 / vbv-maxrate=160000 / vbv-bufsize=160000 / vbv-init=0.9 / crf-max=0.0 / crf-min=0.0 / ipratio=1.40 / pbratio=1.30 / aq-mode=1 / aq-strength=1.00 / cutree / zone-count=0 / no-strict-cbr / qg-size=32 / no-rc-grain / qpmax=69 / qpmin=0 / no-const-vbv / sar=1 / overscan=0 / videoformat=5 / range=0 / colorprim=9 / transfer=16 / colormatrix=9 / chromaloc=1 / chromaloc-top=2 / chromaloc-bottom=2 / display-window=0 / master-display=G(13250,34500)B(7500,3000)R(34000,16000)WP(15635,16450)L(10000000,20) / max-cll=595,494 / min-luma=0 / max-luma=1023 / log2-max-poc-lsb=8 / vui-timing-info / vui-hrd-info / slices=1 / no-opt-qp-pps / no-opt-ref-list-length-pps / no-multi-pass-opt-rps / scenecut-bias=0.05 / no-opt-cu-delta-qp / no-aq-motion / hdr / hdr-opt / no-dhdr10-opt / no-idr-recovery-sei / analysis-reuse-level=5 / scale-factor=0 / refine-intra=0 / refine-inter=0 / refine-mv=0 / refine-ctu-distortion=0 / no-limit-sao / ctu-info=0 / no-lowpass-dct / refine-analysis-type=0 / copy-pic=1 / max-ausize-factor=1.0 / no-dynamic-refine / no-single-sei / no-hevc-aq / qp-adaptation-range=1.00
Language                                 : English
Default                                  : Yes
Forced                                   : No
Color range                              : Limited
Color primaries                          : BT.2020
Transfer characteristics                 : PQ
Matrix coefficients                      : BT.2020 non-constant
Mastering display color primaries        : Display P3
Mastering display luminance              : min: 0.0020 cd/m2, max: 1000 cd/m2
Maximum Content Light Level              : 595 cd/m2
Maximum Frame-Average Light Level        : 494 cd/m2

Audio #1
ID                                       : 2
Format                                   : AC-3
Format/Info                              : Audio Coding 3
Commercial name                          : Dolby Digital
Codec ID                                 : A_AC3
Duration                                 : 2 h 4 min
Bit rate mode                            : Constant
Bit rate                                 : 576 kb/s
Channel(s)                               : 6 channels
Channel layout                           : L R C LFE Ls Rs
Sampling rate                            : 48.0 kHz
Frame rate                               : 31.250 FPS (1536 SPF)
Bit depth                                : 16 bits
Compression mode                         : Lossy
Stream size                              : 512 MiB (3%)
Title                                    : Latino AC3 Core 5.1 576 kbps Bluray 4k
Language                                 : Latin
Service kind                             : Complete Main
Default                                  : Yes
Forced                                   : No

Audio #2
ID                                       : 3
Format                                   : E-AC-3
Format/Info                              : Enhanced AC-3
Commercial name                          : Dolby Digital Plus
Format profile                           : Blu-ray Disc
Codec ID                                 : A_EAC3
Duration                                 : 2 h 4 min
Bit rate mode                            : Constant
Bit rate                                 : 1 024 kb/s
Channel(s)                               : 8 channels
Channel layout                           : L R C LFE Ls Rs Lb Rb
Sampling rate                            : 48.0 kHz
Frame rate                               : 31.250 FPS (1536 SPF)
Compression mode                         : Lossy
Stream size                              : 909 MiB (5%)
Title                                    : Latino E-AC3/Core 7.1/5.1 1024/576 kbps Bluray 4k
Language                                 : Latin
Service kind                             : Complete Main
Default                                  : No
Forced                                   : No

Audio #3
ID                                       : 4
Format                                   : MLP FBA 16-ch
Format/Info                              : Meridian Lossless Packing FBA with 16-channel presentation
Commercial name                          : Dolby TrueHD with Dolby Atmos
Codec ID                                 : A_TRUEHD
Duration                                 : 2 h 4 min
Bit rate mode                            : Variable
Bit rate                                 : 4 734 kb/s
Maximum bit rate                         : 7 644 kb/s
Channel(s)                               : 8 channels
Channel layout                           : L R C LFE Ls Rs Lb Rb
Sampling rate                            : 48.0 kHz
Frame rate                               : 1 200.000 FPS (40 SPF)
Compression mode                         : Lossless
Stream size                              : 4.11 GiB (25%)
Title                                    : Ingles TrueHD/Atmos 7.1 4734/7644 kbps Bluray 4k
Language                                 : English
Default                                  : No
Forced                                   : No
Number of dynamic objects                : 13
Bed channel count                        : 1 channel
Bed channel configuration                : LFE

Audio #4
ID                                       : 5
Format                                   : AC-3
Format/Info                              : Audio Coding 3
Commercial name                          : Dolby Digital
Codec ID                                 : A_AC3
Duration                                 : 2 h 4 min
Bit rate mode                            : Constant
Bit rate                                 : 640 kb/s
Channel(s)                               : 6 channels
Channel layout                           : L R C LFE Ls Rs
Sampling rate                            : 48.0 kHz
Frame rate                               : 31.250 FPS (1536 SPF)
Bit depth                                : 16 bits
Compression mode                         : Lossy
Stream size                              : 568 MiB (3%)
Title                                    : Ingles AC3 5.1 640 kbps Bluray 4k
Language                                 : English
Service kind                             : Complete Main
Default                                  : No
Forced                                   : No

Text #1
ID                                       : 6
Format                                   : UTF-8
Codec ID                                 : S_TEXT/UTF8
Codec ID/Info                            : UTF-8 Plain Text
Duration                                 : 2 h 2 min
Bit rate                                 : 41 b/s
Count of elements                        : 1161
Stream size                              : 37.3 KiB (0%)
Title                                    : Latino
Language                                 : Latin
Default                                  : No
Forced                                   : No

Text #2
ID                                       : 7
Format                                   : UTF-8
Codec ID                                 : S_TEXT/UTF8
Codec ID/Info                            : UTF-8 Plain Text
Duration                                 : 2 h 0 min
Bit rate                                 : 0 b/s
Count of elements                        : 14
Stream size                              : 289 Bytes (0%)
Title                                    : Forzados
Language                                 : Latin
Default                                  : Yes
Forced                                   : No

Text #3
ID                                       : 8
Format                                   : PGS
Muxing mode                              : zlib
Codec ID                                 : S_HDMV/PGS
Codec ID/Info                            : Picture based subtitle format used on BDs/HD-DVDs
Duration                                 : 2 h 2 min
Bit rate                                 : 29.4 kb/s
Count of elements                        : 2322
Stream size                              : 25.8 MiB (0%)
Title                                    : Latino
Language                                 : Latin
Default                                  : No
Forced                                   : No

Text #4
ID                                       : 9
Format                                   : PGS
Muxing mode                              : zlib
Codec ID                                 : S_HDMV/PGS
Codec ID/Info                            : Picture based subtitle format used on BDs/HD-DVDs
Duration                                 : 2 h 0 min
Bit rate                                 : 269 b/s
Count of elements                        : 28
Stream size                              : 238 KiB (0%)
Title                                    : Forzados
Language                                 : Latin
Default                                  : No
Forced                                   : No

Text #5
ID                                       : 10
Format                                   : PGS
Muxing mode                              : zlib
Codec ID                                 : S_HDMV/PGS
Codec ID/Info                            : Picture based subtitle format used on BDs/HD-DVDs
Duration                                 : 2 h 2 min
Bit rate                                 : 35.9 kb/s
Count of elements                        : 2748
Stream size                              : 31.5 MiB (0%)
Title                                    : Ingles
Language                                 : English
Default                                  : No
Forced                                   : No













Links Intercambiables​


Enlaces de Mega y Google Drive solo disponibles para Miembros VIP

Compra tu Membresía VIP y apoya a Club-HD!

ATENCIÓN! Tenemos TODO el material de Club-HD disponible por Mega y Google Drive, enlaces 100% activos y online hasta la fecha

Llévate tus cuentas Mega PRO II gratis con tu membresía VIP!
Todos los posts vivos con links de Mega y Google Drive.
Todo el material de Club-HD desbloqueado y sin publicidad.

Click Aquí para más información.

Enlaces de Mega y Google Drive solo disponibles para Miembros VIP

Compra tu Membresía VIP y apoya a Club-HD!

ATENCIÓN! Tenemos TODO el material de Club-HD disponible por Mega y Google Drive, enlaces 100% activos y online hasta la fecha

Llévate tus cuentas Mega PRO II gratis con tu membresía VIP!
Todos los posts vivos con links de Mega y Google Drive.
Todo el material de Club-HD desbloqueado y sin publicidad.

Click Aquí para más información.

Para ver este contenido oculto, debes dar click en una de las siguientes reacciones: Like Like, Love Love, Haha Haha, Wow Wow, Sad Sad, Angry Angry

Para ver este contenido oculto, debes dar click en una de las siguientes reacciones: Like Like, Love Love, Haha Haha, Wow Wow, Sad Sad, Angry Angry

Para ver este contenido oculto, debes dar click en una de las siguientes reacciones: Like Like, Love Love, Haha Haha, Wow Wow, Sad Sad, Angry Angry


Código:
www.club-hd.com
 

Josiba

Well-known member
Registrado
27 Ago 2012
Mensajes
5,751
Puntos de reacción
266
Puntos
83
Edad
51

kempes54

Well-known member
Miembro VIP
Registrado
28 Ago 2012
Mensajes
727
Puntos de reacción
302
Puntos
63
Un Like más a Brady el mago de los 4K!!
 

Vicure

Well-known member
Miembro VIP
Registrado
27 Ago 2012
Mensajes
1,750
Puntos de reacción
52
Puntos
48

Usuarios Que Están Viendo Este Tema (Total: 1, Miembros: 0, Invitados: 1)

Quien Leyó Este Tema (Total Miembros: 1)

Arriba