Casablanca (1942) 720p BDRip Dual Latino-Inglés [Subt. Esp] (Drama. Romance)

Maestro Revolver

Well-known member
Miembro del Staff
Administrador
Registro
9 Ago 2012
Mensajes
3.567








TÍTULO ORIGINAL: Casablanca
AÑO: 1942
DURACIÓN: 102 min.
PAÍS: USA
DIRECTOR: Michael Curtiz
GUIÓN: Julius J. Epstein, Philip G. Epstein, Howard Koch (Obra: Murray Burnett, Joan Alison)
REPARTO: Humphrey Bogart, Ingrid Bergman, Paul Henreid, Claude Rains, Conrad Veidt, Sydney Greenstreet, Peter Lorre, S.Z. Sakall, Madeleine LeBeau, Dooley Wilson, Joy Page, John Qualen, Leonid Kinskey, Curt Bois, Ed Agresti, Marcel Dalio, Enrique Acosta, Louis V. Arco, Frank Arnold, Leon Belasco, Oliver Blake
PRODUCTORA: Warner Bros. Pictures; Productor: Hal B. Wallis
GÉNERO: Drama. Romance | Drama romántico. II Guerra Mundial. África. Nazismo. Propaganda
: http://www.imdb.com/title/tt0034583/






Durante la Segunda Guerra Mundial (1939-1945), Casablanca era una ciudad a la que llegaban huyendo del nazismo gentes de todas partes: llegar era fácil, pero salir era casi imposible, especialmente si el nombre del fugitivo figuraba en las listas de la Gestapo. En esta ocasión el principal objetivo de la policía secreta alemana es el líder checo y héroe de la resistencia Victor Laszlo, cuya única esperanza es Rick Blaine, propietario del 'Rick’s Café' y antiguo amante de su mujer, Ilsa. Cuando Ilsa se ofrece a quedarse a cambio de un visado para sacar a Laszlo del país, Rick deberá elegir entre su propia felicidad o el idealismo que rigió su vida en el pasado.




















La pelicula NO tiene ninguna marca... solo colocamos el nombre de esta web en las capturas






Código:
General
Format                                   : Matroska
Format version                           : Version 2
File size                                : 4.51 GiB
Duration                                 : 1h 42mn
Overall bit rate                         : 6 287 Kbps
Movie name                               : www.club-hd.com
Encoded date                             : UTC 2013-10-17 03:15:31
Writing application                      : mkvmerge v5.7.0 ('The Whirlwind') built on Jul  8 2012 20:08:51
Writing library                          : libebml v1.2.3 + libmatroska v1.3.0

Video
ID                                       : 1
Format                                   : AVC
Format/Info                              : Advanced Video Codec
Format profile                           : High@L4.1
Format settings, CABAC                   : Yes
Format settings, ReFrames                : 8 frames
Codec ID                                 : V_MPEG4/ISO/AVC
Duration                                 : 1h 42mn
Bit rate                                 : 5 902 Kbps
Width                                    : 1 280 pixels
Height                                   : 938 pixels
Display aspect ratio                     : 4:3
Frame rate mode                          : Constant
Frame rate                               : 23.976 fps
Color space                              : YUV
Chroma subsampling                       : 4:2:0
Bit depth                                : 8 bits
Scan type                                : Progressive
Bits/(Pixel*Frame)                       : 0.205
Stream size                              : 4.14 GiB (92%)
Title                                    : www.club-hd.com
Writing library                          : x264 core 65 r1057M 5f8a149
Language                                 : English
Default                                  : Yes
Forced                                   : No

Audio #1
ID                                       : 2
Format                                   : AC-3
Format/Info                              : Audio Coding 3
Mode extension                           : CM (complete main)
Format settings, Endianness              : Big
Codec ID                                 : A_AC3
Duration                                 : 1h 42mn
Bit rate mode                            : Constant
Bit rate                                 : 192 Kbps
Channel(s)                               : 1 channel
Channel positions                        : Front: C
Sampling rate                            : 48.0 KHz
Bit depth                                : 16 bits
Compression mode                         : Lossy
Stream size                              : 141 MiB (3%)
Title                                    : www.club-hd.com  >>  Latino
Language                                 : Spanish
Default                                  : Yes
Forced                                   : No

Audio #2
ID                                       : 3
Format                                   : AC-3
Format/Info                              : Audio Coding 3
Mode extension                           : CM (complete main)
Format settings, Endianness              : Big
Codec ID                                 : A_AC3
Duration                                 : 1h 42mn
Bit rate mode                            : Constant
Bit rate                                 : 192 Kbps
Channel(s)                               : 1 channel
Channel positions                        : Front: C
Sampling rate                            : 48.0 KHz
Bit depth                                : 16 bits
Compression mode                         : Lossy
Stream size                              : 141 MiB (3%)
Title                                    : www.club-hd.com  >>  Inglés
Language                                 : English
Default                                  : No
Forced                                   : No

Text
ID                                       : 4
Format                                   : UTF-8
Codec ID                                 : S_TEXT/UTF8
Codec ID/Info                            : UTF-8 Plain Text
Language                                 : Spanish
Default                                  : No
Forced                                   : No








Enlaces de Mega y Google Drive solo disponibles para Miembros VIP

Compra tu Membresía VIP y apoya a Club-HD!

ATENCIÓN! Tenemos TODO el material de Club-HD disponible por Mega y Google Drive, enlaces 100% activos y online hasta la fecha

Llévate tus cuentas Mega PRO III gratis con tu membresía VIP!
Todos los posts vivos con links de Mega y Google Drive.
Todo el material de Club-HD desbloqueado y sin publicidad.

Click Aquí para más información.



Para ver este contenido oculto, debes dar click en una de las siguientes reacciones : Like Like, Love Love, Haha Haha, Wow Wow, Sad Sad, Angry Angry

 
Última edición por un moderador:

Claudia

😍 ❤️ Descansa en paz mi amada doña... ❤️ 😍
Ex Staff
Registro
28 Ago 2012
Mensajes
2.282
Edad
49
Ubicación
EN MI MUNDO REAL...
Mi viejo el otro día me pregunto por esta película y Lo que el Viento se llevo.
Ni que fueras adivino, MI VIEJO TE LO AGRACE MUCHO Revolver Tb_up3
Desc_g_

Hola Aleman....podes completar los grandes clasicos para tu padre aqui te dejo Lo que el Viento se llevo.....


720-1080


http://www.club-hd.com/showthread.p...ngl%E9s-Subt-Esp-%28Drama-Romance-Aventura%29

http://www.club-hd.com/showthread.p...ngl%E9s-Subt-Esp-%28Drama-Romance-Aventura%29


Grandes clasicos de Oro no pueden faltar en la videoteca
....:aplausos:
 

Usuarios Que Están Viendo Este Tema (Total: 1, Miembros: 0, Invitados: 1)

Quién Leyó Este Tema (Total Miembros: 3)

Arriba