Catch Me If You Can (2002) m-720p Dual Latino-Inglés [Subt. Esp-Ing] (Thriller. Drama. Comedia)

Maestro Revolver

Well-known member
Miembro del Staff
Administrador
Registro
9 Ago 2012
Mensajes
3.569
Reacciones
59.354
Puntos
113

Reputation:









TÍTULO ORIGINAL: Catch Me If You Can
AÑO: 2002
DURACIÓN: 140 min.
PAÍS: USA
DIRECTOR: Steven Spielberg
GUIÓN: Jeff Nathanson (Libro: Frank W. Abagnale & Stan Redding)
REPARTO: Leonardo DiCaprio, Tom Hanks, Christopher Walken, Amy Adams, Nathalie Baye, Martin Sheen, Jennifer Garner, Brian Howe, Frank John Hughes, James Brolin, Elizabeth Banks, Chris Ellis, Ellen Pompeo
PRODUCTORA: Dreamworks
GÉNERO: Thriller. Drama. Comedia | Crimen. Basado en hechos reales. Años 60. Años 70
: http://www.imdb.com/title/tt0264464/

PREMIOS: 2002: 2 nominaciones al Oscar: Mejor actor secundario (Christopher Walken), bso
2002: Globos de Oro: Nominada Mejor actor - drama (Leonardo DiCaprio)
2002: Premios BAFTA: Mejor actor secundario (Christopher Walken). 4 nominaciones






Basada en hechos reales. Frank W. Abagnale (Leonardo DiCaprio) es un joven y escurridizo delincuente que adopta diversas identidades (médico, abogado o copiloto de líneas aéreas). Carl Hanratty (Tom Hanks) es un agente del FBI, cuya única misión consiste en seguir su pista y capturarlo para llevarlo ante la justicia, pero Frank siempre va un paso por delante de él.
























La pelicula NO tiene ninguna marca... solo colocamos el nombre de esta web en las capturas






Código:
General
Format                                   : Matroska
Format version                           : Version 2
File size                                : 3.98 GiB
Duration                                 : 2h 20mn
Overall bit rate                         : 4 049 Kbps
Movie name                               : www.club-hd.com
Encoded date                             : UTC 2012-11-26 13:23:41
Writing application                      : mkvmerge v5.7.0 ('The Whirlwind') built on Jul  8 2012 20:08:51
Writing library                          : libebml v1.2.3 + libmatroska v1.3.0

Video
ID                                       : 1
Format                                   : AVC
Format/Info                              : Advanced Video Codec
Format profile                           : High@L4.1
Format settings, CABAC                   : Yes
Format settings, ReFrames                : 9 frames
Codec ID                                 : V_MPEG4/ISO/AVC
Duration                                 : 2h 20mn
Bit rate                                 : 3 024 Kbps
Width                                    : 1 280 pixels
Height                                   : 692 pixels
Display aspect ratio                     : 1.85:1
Frame rate mode                          : Constant
Frame rate                               : 23.976 fps
Color space                              : YUV
Chroma subsampling                       : 4:2:0
Bit depth                                : 8 bits
Scan type                                : Progressive
Bits/(Pixel*Frame)                       : 0.142
Stream size                              : 2.89 GiB (73%)
Title                                    : www.club-hd.com
Writing library                          : x264 core 129 r2230 1cffe9f
Language                                 : English
Default                                  : Yes
Forced                                   : No

Audio #1
ID                                       : 2
Format                                   : AC-3
Format/Info                              : Audio Coding 3
Mode extension                           : CM (complete main)
Format settings, Endianness              : Big
Codec ID                                 : A_AC3
Duration                                 : 2h 20mn
Bit rate mode                            : Constant
Bit rate                                 : 384 Kbps
Channel(s)                               : 6 channels
Channel positions                        : Front: L C R, Side: L R, LFE
Sampling rate                            : 48.0 KHz
Bit depth                                : 16 bits
Compression mode                         : Lossy
Delay relative to video                  : 1s 0ms
Stream size                              : 387 MiB (9%)
Title                                    : www.club-hd.com  >>  Latino
Language                                 : Spanish
Default                                  : Yes
Forced                                   : No

Audio #2
ID                                       : 3
Format                                   : AC-3
Format/Info                              : Audio Coding 3
Mode extension                           : CM (complete main)
Format settings, Endianness              : Big
Codec ID                                 : A_AC3
Duration                                 : 2h 20mn
Bit rate mode                            : Constant
Bit rate                                 : 640 Kbps
Channel(s)                               : 6 channels
Channel positions                        : Front: L C R, Side: L R, LFE
Sampling rate                            : 48.0 KHz
Bit depth                                : 16 bits
Compression mode                         : Lossy
Stream size                              : 644 MiB (16%)
Title                                    : www.club-hd.com  >>  Inglés
Language                                 : English
Default                                  : No
Forced                                   : No

Text #1
ID                                       : 4
Format                                   : UTF-8
Codec ID                                 : S_TEXT/UTF8
Codec ID/Info                            : UTF-8 Plain Text
Title                                    : Forzados
Language                                 : Spanish
Default                                  : Yes
Forced                                   : No

Text #2
ID                                       : 5
Format                                   : UTF-8
Codec ID                                 : S_TEXT/UTF8
Codec ID/Info                            : UTF-8 Plain Text
Language                                 : English
Default                                  : No
Forced                                   : No

Text #3
ID                                       : 6
Format                                   : UTF-8
Codec ID                                 : S_TEXT/UTF8
Codec ID/Info                            : UTF-8 Plain Text
Language                                 : English
Default                                  : No
Forced                                   : No

Menu
00:00:00.000                             : en:My Name Is Frank Abagnale, Jr.
00:04:43.909                             : en:Carl Hanratty
00:10:59.450                             : en:Lifestyle Changes
00:18:35.281                             : en:The Substitute
00:25:56.430                             : en:Running Away
00:28:58.737                             : en:Becoming a Pilot
00:33:59.663                             : en:Getting It All Back
00:38:37.065                             : en:Dead Head
00:42:09.944                             : en:Check Cashing
00:49:06.068                             : en:Barry Allen, Secret Service
00:56:54.870                             : en:The James Bond of the Sky
01:03:42.527                             : en:He's a Kid
01:10:05.952                             : en:Dr. Frank Conners
01:22:26.733                             : en:Becoming a Lawyer
01:32:10.400                             : en:Calling a Truce
01:38:26.067                             : en:What's in a Name
01:43:32.581                             : en:New Recruiting Program
01:49:50.417                             : en:Out of Control
01:58:00.907                             : en:Family News
02:04:01.476                             : en:Financial Crime Unit
02:12:33.279                             : en:Late for Work
02:16:00.194                             : en:End Credits










Enlaces de Mega y Fireload solo disponibles para Miembros VIP

Compra tu Membresía VIP y apoya a Club-HD!

ATENCIÓN! Tenemos TODO el material de Club-HD disponible por Mega y Fireload, enlaces 100% activos y online hasta la fecha

Llévate tus cuentas Mega PRO II gratis con tu membresía VIP!
Todos los posts vivos con links de Mega y Fireload.
Todo el material de Club-HD desbloqueado y sin publicidad.

Click Aquí para más información.




Enlaces de Mega y Fireload solo disponibles para Miembros VIP

Compra tu Membresía VIP y apoya a Club-HD!

ATENCIÓN! Tenemos TODO el material de Club-HD disponible por Mega y Fireload, enlaces 100% activos y online hasta la fecha

Llévate tus cuentas Mega PRO II gratis con tu membresía VIP!
Todos los posts vivos con links de Mega y Fireload.
Todo el material de Club-HD desbloqueado y sin publicidad.

Click Aquí para más información.



Para ver este contenido oculto, debes dar click en una de las siguientes reacciones : Like Like, Love Love, Haha Haha, Wow Wow, Sad Sad, Angry Angry
 
Última edición:

Joc

New member
Registro
27 Ago 2012
Mensajes
185
Reacciones
21
Puntos
0

Reputation:

Excelente pelicula, la tengo en una calidad menor, pero con este aporte, mejor me la vuelvo a descargar.
 

Yonatan

Admin
Miembro del Staff
Administrador
Registro
27 Ago 2012
Mensajes
1.768
Reacciones
3.728
Puntos
113
Edad
28
Ubicación
Chile, Sexta Región

Reputation:

Excelente pelicula, a descargar ahora mismo :D gracias maestro de maestros
 

edemf

Member
Registro
30 Ago 2012
Mensajes
393
Reacciones
15
Puntos
18

Reputation:

Tb_up3 son grandes grandes grandes!!!
 

lefarocu69

New member
Registro
27 Ago 2012
Mensajes
182
Reacciones
5
Puntos
0
Edad
52

Reputation:

Esta es una excelente pelicula ya tiene sus añitos pero vale la pena descargarla y volver a verla
 

Bisshop69

Member
Registro
31 Ago 2012
Mensajes
392
Reacciones
18
Puntos
18

Reputation:

Esta vez te superaste a ti mismo!!!!!
Revolver21 mil GRACIAS!!! no tienes idea de cuanto la esperaba en esta calidad... GRACIAS MIL!!!!
Solo falta esperar que llegue The Aviator y nada a esperar el tiempo que sea necesario thanks!
 

Usuarios Que Están Viendo Este Tema (Total: 1, Miembros: 0, Invitados: 1)

Arriba