Chicago Fire S01-04 (2013-2016) 1080p AMZN WEB-DL Dual Latino-Inglés [Subt.Esp] (Drama. Acción)

Tr3vor

Well-known member
Uploader
Colaborador
Registro
17 May 2018
Mensajes
1.270
Reacciones
12.987
Puntos
113
Edad
32

Reputation:






De la mano del aclamado productor ejecutivo ganador del Premio Emmy Dick Wolf "(Ley y orden") y de los creadores Derek Haas y Michael Brandt, el equipo de redacción detrás de "3:10 to Yuma", llega la cuarta temporada del drama de alto voltaje "Chicago Fire ": una vista a las vidas de los héroes anónimos comprometidos con una de las profesiones más nobles de Estados Unidos. Para los bomberos, el...


MEDIAINFO
Código:
Format                      : Matroska
Format version              : Version 4
File size                   : 3.25 GiB
Duration                    : 43 min 26 s
Overall bit rate            : 10.7 Mb/s
Encoded date                : UTC 2021-11-22 14:10:43
Writing application         : mkvmerge v58.0.0 ('Supper's Ready') 32-bit
Writing library             : libebml v1.4.2 + libmatroska v1.6.4

Video
ID                          : 1
Format                      : AVC
Format/Info                 : Advanced Video Codec
Format profile              : High@L4
Format settings             : CABAC / 4 Ref Frames
Format settings, CABAC      : Yes
Format settings, Reference  : 4 frames
Codec ID                    : V_MPEG4/ISO/AVC
Duration                    : 43 min 26 s
Bit rate mode               : Constant
Bit rate                    : 9 424 kb/s
Nominal bit rate            : 10 000 kb/s
Width                       : 1 920 pixels
Height                      : 1 080 pixels
Display aspect ratio        : 16:9
Frame rate mode             : Constant
Frame rate                  : 23.976 (24000/1001) FPS
Color space                 : YUV
Chroma subsampling          : 4:2:0
Bit depth                   : 8 bits
Scan type                   : Progressive
Bits/(Pixel*Frame)          : 0.190
Stream size                 : 2.86 GiB (88%)
Default                     : Yes
Forced                      : No
Color range                 : Limited
Color primaries             : BT.709
Transfer characteristics    : BT.709
Matrix coefficients         : BT.709

Audio #1
ID                          : 2
Format                      : E-AC-3
Format/Info                 : Enhanced AC-3
Commercial name             : Dolby Digital Plus
Codec ID                    : A_EAC3
Duration                    : 43 min 26 s
Bit rate mode               : Constant
Bit rate                    : 640 kb/s
Channel(s)                  : 6 channels
Channel layout              : L R C LFE Ls Rs
Sampling rate               : 48.0 kHz
Frame rate                  : 31.250 FPS (1536 SPF)
Compression mode            : Lossy
Stream size                 : 199 MiB (6%)
Title                       : English
Language                    : English
Service kind                : Complete Main
Default                     : Yes
Forced                      : No

Audio #2
ID                          : 3
Format                      : E-AC-3
Format/Info                 : Enhanced AC-3
Commercial name             : Dolby Digital Plus
Codec ID                    : A_EAC3
Duration                    : 43 min 26 s
Bit rate mode               : Constant
Bit rate                    : 640 kb/s
Channel(s)                  : 6 channels
Channel layout              : L R C LFE Ls Rs
Sampling rate               : 48.0 kHz
Frame rate                  : 31.250 FPS (1536 SPF)
Compression mode            : Lossy
Stream size                 : 199 MiB (6%)
Title                       : Spanish
Language                    : Spanish
Service kind                : Complete Main
Default                     : No
Forced                      : No

Text #1
ID                          : 4
Format                      : UTF-8
Codec ID                    : S_TEXT/UTF8
Codec ID/Info               : UTF-8 Plain Text
Duration                    : 42 min 11 s
Bit rate                    : 62 b/s
Count of elements           : 740
Stream size                 : 19.4 KiB (0%)
Title                       : English [SDH]
Language                    : English
Default                     : No
Forced                      : No

Text #2
ID                          : 5
Format                      : UTF-8
Codec ID                    : S_TEXT/UTF8
Codec ID/Info               : UTF-8 Plain Text
Duration                    : 42 min 9 s
Bit rate                    : 58 b/s
Count of elements           : 602
Stream size                 : 18.1 KiB (0%)
Title                       : Castilian [Full]
Language                    : Spanish
Default                     : No
Forced                      : No

Text #3
ID                          : 6
Format                      : UTF-8
Codec ID                    : S_TEXT/UTF8
Codec ID/Info               : UTF-8 Plain Text
Duration                    : 42 min 8 s
Bit rate                    : 53 b/s
Count of elements           : 602
Stream size                 : 16.6 KiB (0%)
Title                       : Spanish [Full]
Language                    : Spanish
Default                     : No
Forced                      : No

Menu
00:00:00.000                : Previously On
00:01:47.000                : Scene 2
00:07:29.000                : Title Sequence
00:07:34.000                : Scene 4
00:15:11.000                : Scene 5
00:24:21.000                : Scene 6
00:30:46.000                : Scene 7
00:34:26.000                : Scene 8
00:42:17.000                : End Credits









Resolución de video: 1920x1080 (AVC, High@L4)
Formato de audio: EAC3 640 kb/s 5.1 (Español latino), EAC3 640 kb/s 5.1 (Inglés)
Formato de subtítulos: SubRip (.srt) (Completos & Forzados)
Lista de audio: Latino e inglés
Fuente: Prime Video

Nota: Esta Version es CBR y la de maria c es VBR





Enlaces de Mega y Fireload solo disponibles para Miembros VIP

Compra tu Membresía VIP y apoya a Club-HD!

ATENCIÓN! Tenemos TODO el material de Club-HD disponible por Mega y Fireload, enlaces 100% activos y online hasta la fecha

Llévate tus cuentas Mega PRO II gratis con tu membresía VIP!
Todos los posts vivos con links de Mega y Fireload.
Todo el material de Club-HD desbloqueado y sin publicidad.

Click Aquí para más información.


Enlaces de Mega y Fireload solo disponibles para Miembros VIP

Compra tu Membresía VIP y apoya a Club-HD!

ATENCIÓN! Tenemos TODO el material de Club-HD disponible por Mega y Fireload, enlaces 100% activos y online hasta la fecha

Llévate tus cuentas Mega PRO II gratis con tu membresía VIP!
Todos los posts vivos con links de Mega y Fireload.
Todo el material de Club-HD desbloqueado y sin publicidad.

Click Aquí para más información.
 
Última edición:

Tr3vor

Well-known member
Uploader
Colaborador
Registro
17 May 2018
Mensajes
1.270
Reacciones
12.987
Puntos
113
Edad
32

Reputation:

la primera temporada aun me falta completarla, pero en drive estan todas completas, espero tener tiempo de subirla en mega ya que me retiro como uploader esta cerca.
 

mkl

Member
Registro
15 Abr 2019
Mensajes
133
Reacciones
2
Puntos
18

Reputation:

Cual es la diferencia entre CBR y VBR?
 

Tr3vor

Well-known member
Uploader
Colaborador
Registro
17 May 2018
Mensajes
1.270
Reacciones
12.987
Puntos
113
Edad
32

Reputation:

Cual es la diferencia entre CBR y VBR?
Cbr mejor calidad, la mía fue bajada con herramienta y la de María con programa osea el programa graba y la herramienta baja directo del enlace
 

Usuarios Que Están Viendo Este Tema (Total: 1, Miembros: 0, Invitados: 1)

Arriba