• Este aviso va dirigido a todos los nuevos miembros recien llegados a Club-HD. Les recordamos que la direccion URL de este sitio web es , asi que deben acceder únicamente por esta URL. Sean todos bienvenidos al Club!

Child's Play (2019) 1080p BDRip HEVC Latino-Inglés [Subt.Esp] (Terror. Muñecos)

Klass

DARK
Uploader
Registrado
27 Sep 2015
Mensajes
750
Puntos de reacción
6,345
Puntos
93





Título original: Child's Play
Latino: El muñeco diabólico
Año: 2019
Duración: 90 min
País:
Estados Unidos
Director: Lars Klevberg
Reparto: Gabriel Bateman, Aubrey Plaza, Brian Tyree Henry, Tim Matheson, David Lewis, Ty Consiglio, Amber Taylor, Beatrice Kitsos, Carlease Burke, Hannah Drew, Kristin York, Nicole Anthony, Veenu Sandhu, Ben Andrusco-Daon, Johnson Phan, Zahra Anderson, Anantjot S Aneja, Marlon Kazadi, Trent Redekop, Eddie Flake, Michael Bardach, Kenneth Tynan, Ariana Nica, Amro Majzoub, Nicholas Dohy
Productora: KatzSmith Productions / Metro-Goldwyn-Mayer (MGM) / Oddfellows Entertainment / Orion Pictures. Distribuida por Metro-Goldwyn-Mayer (MGM)
Genero: Terror | Comedia de terror. Muñecos. Remake

Sinopsis: Una madre le regala a su hijo un muñeco por su cumpleaños, sin ser consciente de la naturaleza maligna que esconde en su interior.

6.0/10

















Código:
Format                                   : Matroska
Format version                           : Version 4
File size                                : 6.76 GiB
Duration                                 : 1 h 30 min
Overall bit rate mode                    : Variable
Overall bit rate                         : 10.8 Mb/s
Encoded date                             : UTC 2019-09-20 02:27:17
Writing application                      : mkvmerge v27.0.0 ('Metropolis') 64-bit
Writing library                          : libebml v1.3.6 + libmatroska v1.4.9
Uploader                                 : Klass
Web                                      : www.club-hd.com / www.latinouhd.com

Video
ID                                       : 1
Format                                   : HEVC
Format/Info                              : High Efficiency Video Coding
Format profile                           : Main 10@L4.1@High
Codec ID                                 : V_MPEGH/ISO/HEVC
Duration                                 : 1 h 30 min
Bit rate                                 : 6 848 kb/s
Width                                    : 1 920 pixels
Height                                   : 808 pixels
Display aspect ratio                     : 2.40:1
Frame rate mode                          : Constant
Frame rate                               : 23.976 (24000/1001) FPS
Color space                              : YUV
Chroma subsampling                       : 4:2:0
Bit depth                                : 10 bits
Bits/(Pixel*Frame)                       : 0.184
Stream size                              : 4.31 GiB (64%)
Language                                 : English
Default                                  : Yes
Forced                                   : No
Color range                              : Limited
Color primaries                          : BT.709
Transfer characteristics                 : BT.709
Matrix coefficients                      : BT.709

Audio #1
ID                                       : 2
Format                                   : DTS XLL
Format/Info                              : Digital Theater Systems
Commercial name                          : DTS-HD Master Audio
Codec ID                                 : A_DTS
Duration                                 : 1 h 30 min
Bit rate mode                            : Variable
Bit rate                                 : 3 451 kb/s
Channel(s)                               : 6 channels
Channel layout                           : C L R Ls Rs LFE
Sampling rate                            : 48.0 kHz
Frame rate                               : 93.750 FPS (512 SPF)
Bit depth                                : 24 bits
Compression mode                         : Lossless
Stream size                              : 2.17 GiB (32%)
Title                                    : Inglés
Language                                 : English
Default                                  : No
Forced                                   : No

Audio #2
ID                                       : 3
Format                                   : AC-3
Format/Info                              : Audio Coding 3
Commercial name                          : Dolby Digital
Codec ID                                 : A_AC3
Duration                                 : 1 h 30 min
Bit rate mode                            : Constant
Bit rate                                 : 448 kb/s
Channel(s)                               : 6 channels
Channel layout                           : L R C LFE Ls Rs
Sampling rate                            : 48.0 kHz
Frame rate                               : 31.250 FPS (1536 SPF)
Bit depth                                : 16 bits
Compression mode                         : Lossy
Stream size                              : 288 MiB (4%)
Title                                    : Latino
Language                                 : Latin
Service kind                             : Complete Main
Default                                  : Yes
Forced                                   : No

Text
ID                                       : 4
Format                                   : UTF-8
Codec ID                                 : S_TEXT/UTF8
Codec ID/Info                            : UTF-8 Plain Text
Duration                                 : 1 h 23 min
Bit rate                                 : 46 b/s
Count of elements                        : 1121
Stream size                              : 28.5 KiB (0%)
Title                                    : Latino
Language                                 : Latin
Default                                  : No
Forced                                   : No

Menu
00:00:00.000                             : :Chapter 01
00:05:12.353                             : :Chapter 02
00:09:48.296                             : :Chapter 03
00:15:13.203                             : :Chapter 04
00:21:13.063                             : :Chapter 05
00:27:49.793                             : :Chapter 06
00:34:33.446                             : :Chapter 07
00:40:52.658                             : :Chapter 08
00:46:00.591                             : :Chapter 09
00:50:02.874                             : :Chapter 10
00:56:43.817                             : :Chapter 11
01:00:45.016                             : :Chapter 12
01:06:41.247                             : :Chapter 13
01:12:45.277                             : :Chapter 14
01:16:46.476                             : :Chapter 15
01:23:51.693                             : :Chapter 16
Contraseña: www.club-hd.com



Enlaces de Mega y Google Drive solo disponibles para Miembros VIP

Compra tu Membresía VIP y apoya a Club-HD!

ATENCIÓN! Tenemos TODO el material de Club-HD disponible por Mega y Google Drive, enlaces 100% activos y online hasta la fecha

Llévate tus cuentas Mega PRO II gratis con tu membresía VIP!
Todos los posts vivos con links de Mega y Google Drive.
Todo el material de Club-HD desbloqueado y sin publicidad.

Click Aquí para más información.


Enlaces de Mega y Google Drive solo disponibles para Miembros VIP

Compra tu Membresía VIP y apoya a Club-HD!

ATENCIÓN! Tenemos TODO el material de Club-HD disponible por Mega y Google Drive, enlaces 100% activos y online hasta la fecha

Llévate tus cuentas Mega PRO II gratis con tu membresía VIP!
Todos los posts vivos con links de Mega y Google Drive.
Todo el material de Club-HD desbloqueado y sin publicidad.

Click Aquí para más información.


Para ver este contenido oculto, debes dar click en una de las siguientes reacciones: Like Like, Love Love, Haha Haha, Wow Wow, Sad Sad, Angry Angry


Para ver este contenido oculto, debes dar click en una de las siguientes reacciones: Like Like, Love Love, Haha Haha, Wow Wow, Sad Sad, Angry Angry
 
Última edición por un moderador:

martinvillagra

New member
Registrado
8 Jul 2014
Mensajes
1,388
Puntos de reacción
139
Puntos
0
Solo para ver que tanto estropearon este clásico o si realmente le hace honor, gracias por el aporte!:LXR::LXR::LXR::LXR::LXR::LXR::pulgar1::pulgar1::pulgar1::pulgar1::pulgar1::pulgar1:
 

Usuarios Que Están Viendo Este Tema (Total: 1, Miembros: 0, Invitados: 1)

Arriba