Cockneys vs Zombies (2012) m-720p Audio Inglés [Subt. Esp] (Comedia. Terror)

Maestro Revolver

Well-known member
Miembro del Staff
Administrador
Registro
9 Ago 2012
Mensajes
3.569
Reacciones
59.366
Puntos
113

Reputation:









TÍTULO ORIGINAL: Cockneys vs Zombies
AÑO: 2012
DURACIÓN: 88 min.
PAÍS: Reino Unido
DIRECTOR: Matthias Hoene
GUIÓN: James Moran, Lucas Roche
REPARTO: Michelle Ryan, Georgia King, Alan Ford, Lee Asquith-Coe, Harry Treadaway, Honor Blackman, Richard Briers, Rasmus Hardiker
PRODUCTORA: Tea Shop & Film Company
GÉNERO: Comedia. Terror. Comedia de terror. Zombis
http://www.imdb.com/title/tt1362058/






Cockneys vs Zombies es la historia de Andy (Harry Treadaway) y Terry (Rasmus Hardiker), dos desventurados hermanos de apellido Cockney que tratan de salvar a la asistenta médica de su abuelo (Alan Ford), robando un banco. Al mismo tiempo, un virus en el este de Londres barre toda la zona, convirtiendo a todos los habitantes en zombis sedientos por comer carne. Frente a las hordas de zombis no-muertos, el reto es rescatar una casa llena de gente, escapar con el botín y salir con la vida en Londres.
























La pelicula NO tiene ninguna marca... solo colocamos el nombre de esta web en las capturas






Código:
General
Format                           : Matroska
Format version                   : Version 2
File size                        : 1.89 GiB
Duration                         : 1h 28mn
Overall bit rate                 : 3 065 Kbps
Movie name                       : www.club-hd.com
Encoded date                     : UTC 2012-10-27 19:29:52
Writing application              : mkvmerge v5.7.0 ('The Whirlwind') built on Jul  8 2012 20:08:51
Writing library                  : libebml v1.2.3 + libmatroska v1.3.0

Video
ID                               : 1
Format                           : AVC
Format/Info                      : Advanced Video Codec
Format profile                   : High@L4.1
Format settings, CABAC           : Yes
Format settings, ReFrames        : 8 frames
Codec ID                         : V_MPEG4/ISO/AVC
Duration                         : 1h 28mn
Bit rate                         : 2 635 Kbps
Width                            : 1 280 pixels
Height                           : 544 pixels
Display aspect ratio             : 2.35:1
Frame rate                       : 24.000 fps
Color space                      : YUV
Chroma subsampling               : 4:2:0
Bit depth                        : 8 bits
Scan type                        : Progressive
Bits/(Pixel*Frame)               : 0.158
Stream size                      : 1.58 GiB (83%)
Title                            : www.club-hd.com
Writing library                  : x264 core 128 r2216 198a7ea
Language                         : English
Default                          : Yes
Forced                           : No

Audio
ID                               : 2
Format                           : AC-3
Format/Info                      : Audio Coding 3
Mode extension                   : CM (complete main)
Codec ID                         : A_AC3
Duration                         : 1h 28mn
Bit rate mode                    : Constant
Bit rate                         : 448 Kbps
Channel(s)                       : 6 channels
Channel positions                : Front: L C R, Side: L R, LFE
Sampling rate                    : 48.0 KHz
Bit depth                        : 16 bits
Compression mode                 : Lossy
Stream size                      : 283 MiB (15%)
Title                            : www.club-hd.com
Language                         : English
Default                          : Yes
Forced                           : No

Text
ID                               : 3
Format                           : UTF-8
Codec ID                         : S_TEXT/UTF8
Codec ID/Info                    : UTF-8 Plain Text
Title                            : www.club-hd.com
Language                         : Spanish
Default                          : Yes
Forced                           : No










Enlaces de Mega y Fireload solo disponibles para Miembros VIP

Compra tu Membresía VIP y apoya a Club-HD!

ATENCIÓN! Tenemos TODO el material de Club-HD disponible por Mega y Fireload, enlaces 100% activos y online hasta la fecha

Llévate tus cuentas Mega PRO II gratis con tu membresía VIP!
Todos los posts vivos con links de Mega y Fireload.
Todo el material de Club-HD desbloqueado y sin publicidad.

Click Aquí para más información.




Enlaces de Mega y Fireload solo disponibles para Miembros VIP

Compra tu Membresía VIP y apoya a Club-HD!

ATENCIÓN! Tenemos TODO el material de Club-HD disponible por Mega y Fireload, enlaces 100% activos y online hasta la fecha

Llévate tus cuentas Mega PRO II gratis con tu membresía VIP!
Todos los posts vivos con links de Mega y Fireload.
Todo el material de Club-HD desbloqueado y sin publicidad.

Click Aquí para más información.



Para ver este contenido oculto, debes dar click en una de las siguientes reacciones : Like Like, Love Love, Haha Haha, Wow Wow, Sad Sad, Angry Angry

 
Última edición:

VILLE77

Active member
Registro
28 Ago 2012
Mensajes
369
Reacciones
34
Puntos
28
Edad
44
Ubicación
Rio Grande, Puerto Rico

Reputation:

Hola comento solo para agradecer la subida prero de esta peli paso. No vi la peli asi que no puedo decir si es buena o mala,
es solo que ya las de zombies me apestan. :plmfc:bl0wup Quitando a
por supuesto...


Quitando eso se agradece la subida y el trabajo que cuesta eso si vale gracias!!!!.

pd: no se me ofenda nadie porfavor que solo es mi humilde opinion..
 
Última edición:

Pedrum

The Buckminster
Registro
28 Ago 2012
Mensajes
1.092
Reacciones
1.546
Puntos
113
Ubicación
Bahia Blanca

Reputation:

A ver que pasa con esta otra de zombies...
Saludos y gracias por todos los estrenos que has subido! victory
 

axel1

New member
Registro
28 Ago 2012
Mensajes
29
Reacciones
0
Puntos
0
Edad
46

Reputation:

gracias

a estos zombiez que andan muy de moda a ver como esta esta muchisimas gracias from hermosillo sonora
 

Usuarios Que Están Viendo Este Tema (Total: 1, Miembros: 0, Invitados: 1)

Arriba