Coyote Ugly (2000) (Theatrical) m-720p BDRip Dual Latino-Inglés [Subt. Esp] (Drama. Romance)

Maestro Revolver

Well-known member
Miembro del Staff
Administrador
Registro
9 Ago 2012
Mensajes
3.567

Aporte Recuperado gracias a nuestro amigo Vyx







TÍTULO ORIGINAL: Coyote Ugly
AÑO: 2000
DURACIÓN: 94 min.
PAÍS: USA
DIRECTOR: David McNally
GUIÓN: Gina Wendkos
REPARTO: Piper Perabo, Adam Garcia, John Goodman, Maria Bello, Melanie Lynskey, Tyra Banks, Bridget Moynahan, Johnny Knoxville, Bud Cort, LeAnn Rimes, Michael Weston, Jack McGee
PRODUCTORA: Touchstone Pictures / Jerry Bruckheimer Films
GÉNERO: Drama. Romance | Drama romántico. Música
: http://www.imdb.com/title/tt0200550/






A sus 21 años, Violet Sanford (Piper Perabo) tiene una sedosa voz de terciopelo y llega a Nueva York con la esperanza de convertirse en letrista. Pero sus sueños quedan aparcados momentáneamente por el éxito que alcanza trabajando como camarera en el bar Coyote. El bar Coyote es un nuevo club nocturno y el punto más caliente de la ciudad. Cuenta con un ambicioso plantel de chicas, todas jóvenes y muy atractivas. Lil (Maria Bello) es el cerebro y la estricta propietaria del local, que reina con autoridad sobre sus chicas. Entre ellas están la coqueta Cammie, la cabezota y variable Rachel y Zoe, la que más propinas consigue. Las "chicas Coyote", como las llaman cariñosamente, provocan a los clientes y a los medios de comunicación con sus atrevidos atuendos, y convierten el bar Coyote en el punto de atracción de los chicos que merodean por la zona.
























La pelicula NO tiene ninguna marca... solo colocamos el nombre de esta web en las capturas






Código:
General
Format                                   : Matroska
Format version                           : Version 2
File size                                : 2.53 GiB
Duration                                 : 1h 40mn
Overall bit rate                         : 3 596 Kbps
Movie name                               : www.club-hd.com
Encoded date                             : UTC 2013-05-20 23:26:05
Writing application                      : mkvmerge v5.7.0 ('The Whirlwind') built on Jul  8 2012 20:08:51
Writing library                          : libebml v1.2.3 + libmatroska v1.3.0

Video
ID                                       : 1
Format                                   : AVC
Format/Info                              : Advanced Video Codec
Format profile                           : High@L4.1
Format settings, CABAC                   : Yes
Format settings, ReFrames                : 8 frames
Codec ID                                 : V_MPEG4/ISO/AVC
Duration                                 : 1h 40mn
Bit rate                                 : 3 000 Kbps
Width                                    : 1 280 pixels
Height                                   : 544 pixels
Display aspect ratio                     : 2.35:1
Original display aspect ratio            : 2.35:1
Frame rate mode                          : Constant
Frame rate                               : 23.976 fps
Color space                              : YUV
Chroma subsampling                       : 4:2:0
Bit depth                                : 8 bits
Scan type                                : Progressive
Bits/(Pixel*Frame)                       : 0.180
Stream size                              : 2.03 GiB (80%)
Title                                    : www.club-hd.com
Writing library                          : x264 core 120
Language                                 : English
Default                                  : No
Forced                                   : No
Color primaries                          : BT.709
Transfer characteristics                 : BT.709
Matrix coefficients                      : BT.709

Audio #1
ID                                       : 2
Format                                   : AC-3
Format/Info                              : Audio Coding 3
Format profile                           : Dolby Digital
Mode extension                           : CM (complete main)
Format settings, Endianness              : Big
Codec ID                                 : A_AC3
Duration                                 : 1h 40mn
Bit rate mode                            : Constant
Bit rate                                 : 192 Kbps
Channel(s)                               : 2 channels
Channel positions                        : Front: L R
Sampling rate                            : 48.0 KHz
Bit depth                                : 16 bits
Compression mode                         : Lossy
Stream size                              : 138 MiB (5%)
Title                                    : www.club-hd.com  >>  Latino
Language                                 : Spanish
Default                                  : Yes
Forced                                   : No

Audio #2
ID                                       : 3
Format                                   : AC-3
Format/Info                              : Audio Coding 3
Mode extension                           : CM (complete main)
Format settings, Endianness              : Big
Codec ID                                 : A_AC3
Duration                                 : 1h 40mn
Bit rate mode                            : Constant
Bit rate                                 : 448 Kbps
Channel(s)                               : 6 channels
Channel positions                        : Front: L C R, Side: L R, LFE
Sampling rate                            : 48.0 KHz
Bit depth                                : 16 bits
Compression mode                         : Lossy
Stream size                              : 323 MiB (12%)
Title                                    : www.club-hd.com  >>  Inglés
Language                                 : English
Default                                  : No
Forced                                   : No

Text
ID                                       : 4
Format                                   : UTF-8
Codec ID                                 : S_TEXT/UTF8
Codec ID/Info                            : UTF-8 Plain Text
Language                                 : Spanish
Default                                  : No
Forced                                   : No








Enlaces de Mega y Google Drive solo disponibles para Miembros VIP

Compra tu Membresía VIP y apoya a Club-HD!

ATENCIÓN! Tenemos TODO el material de Club-HD disponible por Mega y Google Drive, enlaces 100% activos y online hasta la fecha

Llévate tus cuentas Mega PRO III gratis con tu membresía VIP!
Todos los posts vivos con links de Mega y Google Drive.
Todo el material de Club-HD desbloqueado y sin publicidad.

Click Aquí para más información.



Para ver este contenido oculto, debes dar click en una de las siguientes reacciones : Like Like, Love Love, Haha Haha, Wow Wow, Sad Sad, Angry Angry
 
Última edición por un moderador:

zacygal

Well-known member
Registro
3 Sep 2012
Mensajes
1.515
Edad
50
Re: Coyote Ugly (2000) m-720p BDRip Dual Latino-Inglés [Subt. Esp] (Drama. Romance)

Grax macho, sta la bajo en 720 ...


Desc_g_
 

Nosferatu

Well-known member
Súper Moderador
Registro
31 Ago 2012
Mensajes
2.274
Edad
45
Ubicación
Welcome to Hell!!
Re: Coyote Ugly (2000) m-720p BDRip Dual Latino-Inglés [Subt. Esp] (Drama. Romance)

Muchas gracias por esta versión mas liviana.:dplgar::dplgar:
 

goku2001

New member
Registro
2 Sep 2012
Mensajes
31
Re: Coyote Ugly (2000) m-720p BDRip Dual Latino-Inglés [Subt. Esp] (Drama. Romance)

muchas gracias
 

jabes

New member
Registro
27 Ago 2012
Mensajes
465
Re: Coyote Ugly (2000) m-720p BDRip Dual Latino-Inglés [Subt. Esp] (Drama. Romance)

Desc_g_
 

proveedores

Well-known member
Registro
17 Nov 2012
Mensajes
1.574
Re: Coyote Ugly (2000) m-720p BDRip Dual Latino-Inglés [Subt. Esp] (Drama. Romance)

Muchas gracias.
 

sunker-123

New member
Registro
27 Ago 2012
Mensajes
2.427
Edad
31
Re: Coyote Ugly (2000) m-720p BDRip Dual Latino-Inglés [Subt. Esp] (Drama. Romance)

Gracias R21, me quedo con esta, mil gracias...:dplgar:
 

mgs2005

Well-known member
Miembro VIP
Registro
23 Oct 2012
Mensajes
1.305
Re: Coyote Ugly (2000) m-720p BDRip Dual Latino-Inglés [Subt. Esp] (Drama. Romance)

Gracias DESCARGANDO.png
 

christian

Well-known member
Miembro VIP
Registro
27 Ago 2012
Mensajes
4.142
Re: Coyote Ugly (2000) m-720p BDRip Dual Latino-Inglés [Subt. Esp] (Drama. Romance)

gracias! :D
 

noesmalo

Active member
Registro
13 Sep 2012
Mensajes
1.141
Edad
36
Re: Coyote Ugly (2000) m-720p BDRip Dual Latino-Inglés [Subt. Esp] (Drama. Romance)

Se Agradece =)
 

virus619

Well-known member
Registro
28 Ago 2012
Mensajes
4.198
Edad
33
Re: Coyote Ugly (2000) m-720p BDRip Dual Latino-Inglés [Subt. Esp] (Drama. Romance)

Gracias :)
 

bbto_77

Well-known member
Miembro VIP
Registro
2 Sep 2012
Mensajes
2.565
Edad
31
Ubicación
Guadalajara
Re: Coyote Ugly (2000) m-720p BDRip Dual Latino-Inglés [Subt. Esp] (Drama. Romance)

Desc_g_
 

Howl

Well-known member
Miembro VIP
Registro
28 Ago 2012
Mensajes
1.769
Re: Coyote Ugly (2000) m-720p BDRip Dual Latino-Inglés [Subt. Esp] (Drama. Romance)

gracias R mas para la cola :)
 

romez

New member
Registro
27 Ago 2012
Mensajes
26
Edad
32
Re: Coyote Ugly (2000) m-720p BDRip Dual Latino-Inglés [Subt. Esp] (Drama. Romance)

genial bro me encanta esta movie!!!
 

Israel The IPM

Well-known member
Registro
31 Ago 2012
Mensajes
1.008
Edad
36
Re: Coyote Ugly (2000) m-720p BDRip Dual Latino-Inglés [Subt. Esp] (Drama. Romance)

Desc_g_
 

aureycr

Member
Registro
27 Ago 2012
Mensajes
361
Re: Coyote Ugly (2000) m-720p BDRip Dual Latino-Inglés [Subt. Esp] (Drama. Romance)

Gracias
 

Usuarios Que Están Viendo Este Tema (Total: 1, Miembros: 0, Invitados: 1)

Quién Leyó Este Tema (Total Miembros: 1)

Arriba