Curse of Chucky (2013) UNRATED 720p BDRip Dual Latino-Inglés [Subt. Esp] (Terror)

Maestro Revolver

Miembro del Staff
Administrador
Registro
9 Ago 2012
Mensajes
3.161






TÍTULO ORIGINAL: Curse of Chucky
AÑO: 2013
DURACIÓN: 97 min.
PAÍS: USA
DIRECTOR: Don Mancini
GUIÓN: Don Mancini
REPARTO: Brad Dourif, Danielle Bisutti, Fiona Dourif, Brennan Elliott, A Martinez, Chantal Quesnelle, Maitland McConnell, Kally Berard, Kyle Nobess, Will Woytowich, Kevin Anderson, Adam Hurtig
PRODUCTORA: Universal Home Entertainment / Universal Pictures
GÉNERO: Terror | Secuela
: http://www.imdb.com/title/tt2230358/






Nica (Fiona Dourif) está destrozada tras el terrible suicidio de su madre. Su hermana mayor Barb (Danielle Bisutti) regresa a su casa para ayudarle en este duro trance, trayéndose con ella a su hija pequeña, quien posee un muñeco parlante llamado Chucky que llegó misteriosamente por correo. A medida que una serie de brutales asesinatos comienzan a aterrorizar a la familia, Nica sospecha que Chucky puede ser la clave del derramamiento de sangre, pero lo que sabe es que éste está decidido a terminar un trabajo que comenzó hace más de 20 años, y esta vez lo va a llevar acabo hasta el final...
























La pelicula NO tiene ninguna marca... solo colocamos el nombre de esta web en las capturas






Código:
General
Format                                   : Matroska
Format version                           : Version 2
File size                                : 4.08 GiB
Duration                                 : 1h 36mn
Overall bit rate                         : 6 049 Kbps
Movie name                               : www.club-hd.com
Encoded date                             : UTC 2013-10-01 01:45:22
Writing application                      : mkvmerge v5.7.0 ('The Whirlwind') built on Jul  8 2012 20:08:51
Writing library                          : libebml v1.2.3 + libmatroska v1.3.0

Video
ID                                       : 1
Format                                   : AVC
Format/Info                              : Advanced Video Codec
Format profile                           : High@L3.1
Format settings, CABAC                   : Yes
Format settings, ReFrames                : 5 frames
Codec ID                                 : V_MPEG4/ISO/AVC
Duration                                 : 1h 36mn
Bit rate                                 : 4 959 Kbps
Width                                    : 1 280 pixels
Height                                   : 720 pixels
Display aspect ratio                     : 16:9
Frame rate mode                          : Constant
Frame rate                               : 23.976 fps
Color space                              : YUV
Chroma subsampling                       : 4:2:0
Bit depth                                : 8 bits
Scan type                                : Progressive
Bits/(Pixel*Frame)                       : 0.224
Stream size                              : 3.27 GiB (80%)
Title                                    : www.club-hd.com
Writing library                          : x264 core 138 r2358 9e941d1
Language                                 : English
Default                                  : Yes
Forced                                   : No

Audio #1
ID                                       : 2
Format                                   : AC-3
Format/Info                              : Audio Coding 3
Mode extension                           : CM (complete main)
Format settings, Endianness              : Big
Codec ID                                 : A_AC3
Duration                                 : 1h 36mn
Bit rate mode                            : Constant
Bit rate                                 : 640 Kbps
Channel(s)                               : 6 channels
Channel positions                        : Front: L C R, Side: L R, LFE
Sampling rate                            : 48.0 KHz
Bit depth                                : 16 bits
Compression mode                         : Lossy
Stream size                              : 443 MiB (11%)
Title                                    : www.club-hd.com  >>  Latino
Language                                 : Spanish
Default                                  : Yes
Forced                                   : No

Audio #2
ID                                       : 3
Format                                   : AC-3
Format/Info                              : Audio Coding 3
Mode extension                           : CM (complete main)
Format settings, Endianness              : Big
Codec ID                                 : A_AC3
Duration                                 : 1h 36mn
Bit rate mode                            : Constant
Bit rate                                 : 448 Kbps
Channel(s)                               : 6 channels
Channel positions                        : Front: L C R, Side: L R, LFE
Sampling rate                            : 48.0 KHz
Bit depth                                : 16 bits
Compression mode                         : Lossy
Stream size                              : 310 MiB (7%)
Title                                    : www.club-hd.com  >>  Inglés
Language                                 : English
Default                                  : No
Forced                                   : No

Text #1
ID                                       : 4
Format                                   : UTF-8
Codec ID                                 : S_TEXT/UTF8
Codec ID/Info                            : UTF-8 Plain Text
Title                                    : Forzados
Language                                 : Spanish
Default                                  : Yes
Forced                                   : No

Text #2
ID                                       : 5
Format                                   : UTF-8
Codec ID                                 : S_TEXT/UTF8
Codec ID/Info                            : UTF-8 Plain Text
Language                                 : Spanish
Default                                  : No
Forced                                   : No

Menu
00:00:00.000                             : en:00:00:00.000
00:04:45.410                             : en:00:04:45.410
00:08:48.486                             : en:00:08:48.486
00:15:30.680                             : en:00:15:30.680
00:20:24.306                             : en:00:20:24.306
00:27:34.653                             : en:00:27:34.653
00:32:42.502                             : en:00:32:42.502
00:37:47.140                             : en:00:37:47.140
00:43:51.671                             : en:00:43:51.671
00:46:54.186                             : en:00:46:54.186
00:51:29.336                             : en:00:51:29.336
00:56:46.903                             : en:00:56:46.903
01:01:29.686                             : en:01:01:29.686
01:05:34.347                             : en:01:05:34.347
01:09:09.270                             : en:01:09:09.270
01:13:41.250                             : en:01:13:41.250
01:20:23.235                             : en:01:20:23.235
01:24:53.505                             : en:01:24:53.505
01:28:31.765                             : en:01:28:31.765
01:31:47.460                             : en:01:31:47.460








Enlaces de Mega y Google Drive solo disponibles para Miembros VIP

Compra tu Membresía VIP y apoya a Club-HD!

ATENCIÓN! Tenemos TODO el material de Club-HD disponible por Mega y Google Drive, enlaces 100% activos y online hasta la fecha

Llévate tus cuentas Mega PRO III gratis con tu membresía VIP!
Todos los posts vivos con links de Mega y Google Drive.
Todo el material de Club-HD desbloqueado y sin publicidad.

Click Aquí para más información.


Para ver este contenido oculto, debes dar click en una de las siguientes reacciones : Like Like, Love Love, Haha Haha, Wow Wow, Sad Sad, Angry Angry


Para ver este contenido oculto, debes dar click en una de las siguientes reacciones : Like Like, Love Love, Haha Haha, Wow Wow, Sad Sad, Angry Angry
 
Última edición por un moderador:

Usuarios Que Están Viendo Este Tema (Total: 1, Miembros: 0, Invitados: 1)

Quién Leyó Este Tema (Total Miembros: 3)

Arriba